(Garage)[SM][16/44,1] Флирт - Анархофобия - 2013 (ремастер), FLAC (tracks+.cue)

 Статистика раздачи 
Размер: 367.89 МБ   |  Зарегистрирован: 20 май 2013, 12:03   |   .torrent скачан: 0 раз
Сидеров: 0  [ 0 байт/сек ]     Личеров: 0  [ 0 байт/сек ]  
  
Аватара пользователя
Главный редактор
Главный редактор
 
Раздал: 90.01 ТБ
Скачал: 3.78 ТБ
Ратио: 24.248
Сообщения: 285812
Стаж: 9 лет 3 месяца 29 дней
Откуда: Санкт-Петербург

Флирт - Анархофобия - 2013 (ремастер)
Жанр: Garage
Год выпуска: 2013
Лейбл: МуШка Rec.
Страна-производитель: Россия
Аудио кодек: FLAC
Тип рипа: tracks+.cue
Формат записи: 16/44,1
Формат раздачи: 16/44,1
Продолжительность: 00:44:48
Треклист:
01 Три медведя
02 Крутится Глобус
03 Кукольная Песня
04 Дурка На Прогулке
05 Песня Ф. Щуся
06 Сибирская LOVE
07 Ярый Онанист
08 Анархическая Заводская
09 Новенький
10 До Посинения
11 Почему Ты Не Фашист
12 Рвота
13 Город Лжи
Бонус:
14 Бляди
15 Политический Пидор
Источник оцифровки: автором раздачи
Устройство воспроизведения: Slimtype DVD A DS8A8SH
Головка звукоснимателя: нет
Предварительный усилитель: нет
АЦП: Realtek High Definition
Программа-оцифровщик: Adobe Audition
Обработка: Мастеринг, компрессия.
Код: Выделить всё
REM GENRE Garage Punk-Rock
REM DATE 2002
PERFORMER "Флирт"
TITLE "Анархофобия"
FILE "01 Три медведя.flac" WAVE
  TRACK 01 AUDIO
    TITLE "Три медведя"
    INDEX 01 00:00:00
FILE "02 Крутится Глобус.flac" WAVE
  TRACK 02 AUDIO
    TITLE "Крутится Глобус"
    INDEX 01 00:00:00
FILE "03 Кукольная Песня.flac" WAVE
  TRACK 03 AUDIO
    TITLE "Кукольная Песня"
    INDEX 01 00:00:00
FILE "04 Дурка На Прогулке.flac" WAVE
  TRACK 04 AUDIO
    TITLE "Дурка На Прогулке"
    INDEX 01 00:00:00
FILE "05 Песня Ф. Щуся.flac" WAVE
  TRACK 05 AUDIO
    TITLE "Песня Ф. Щуся"
    INDEX 01 00:00:00
FILE "06 Сибирская LOVE.flac" WAVE
  TRACK 06 AUDIO
    TITLE "Сибирская LOVE"
    INDEX 01 00:00:00
FILE "07 Ярый Онанист.flac" WAVE
  TRACK 07 AUDIO
    TITLE "Ярый Онанист"
    INDEX 01 00:00:00
FILE "08 Анархическая Заводская.flac" WAVE
  TRACK 08 AUDIO
    TITLE "Анархическая Заводская"
    INDEX 01 00:00:00
FILE "09 Новенький.flac" WAVE
  TRACK 09 AUDIO
    TITLE "Новенький"
    INDEX 01 00:00:00
FILE "10 До Посинения.flac" WAVE
  TRACK 10 AUDIO
    TITLE "До Посинения"
    INDEX 01 00:00:00
FILE "11 Почему Ты Не Фашист.flac" WAVE
  TRACK 11 AUDIO
    TITLE "Почему Ты Не Фашист"
    INDEX 01 00:00:00
FILE "12 Рвота.flac" WAVE
  TRACK 12 AUDIO
    TITLE "Рвота"
    INDEX 01 00:00:00
FILE "13 Город Лжи.flac" WAVE
  TRACK 13 AUDIO
    TITLE "Город Лжи"
    INDEX 01 00:00:00
FILE "14 Бляди.flac" WAVE
  TRACK 14 AUDIO
    TITLE "Бляди"
    INDEX 01 00:00:00
FILE "15 Политический Пидор.flac" WAVE
  TRACK 15 AUDIO
    TITLE "Политический Пидор"
    INDEX 01 00:00:00
Код: Выделить всё
AUDIOCHECKER v2.0 beta (build 457) - by Dester - opdester@freemail.hu
~~~~~~~~~~~~~~~~~~~~~~~~~~~~~~~~~~
-=== DO NOT EDIT THIS FILE! ===-
Path: ...\Флирт-Анархофобия 2002 (студийная запись обработана)
01 -=- 05 Песня Ф. Щуся.flac -=- CDDA (100%)
02 -=- 01 Три медведя.flac -=- CDDA (99%)
03 -=- 02 Крутится Глобус.flac -=- CDDA (100%)
04 -=- 03 Кукольная Песня.flac -=- CDDA (100%)
05 -=- 04 Дурка На Прогулке.flac -=- CDDA (100%)
06 -=- 05 Песня Ф. Щуся.flac -=- CDDA (100%)
07 -=- 06 Сибирская LOVE.flac -=- CDDA (100%)
08 -=- 07 Ярый Онанист.flac -=- CDDA (100%)
09 -=- 08 Анархическая Заводская.flac -=- CDDA (100%)
10 -=- 09 Новенький.flac -=- CDDA (100%)
11 -=- 10 До Посинения.flac -=- CDDA (99%)
12 -=- 11 Почему Ты Не Фашист.flac -=- CDDA (100%)
13 -=- 12 Рвота.flac -=- CDDA (100%)
14 -=- 13 Город Лжи.flac -=- CDDA (99%)
15 -=- 14 Бляди.flac -=- CDDA (100%)
16 -=- 15 Политический Пидор.flac -=- CDDA (100%)
Summary 99,81% CDDA
131392804
Доп. информация: Альбом группы записан в "ASTORIA studio", 2002 год. Ремастирован Олминым в 2013 году.
Обнаружены скрытые артефакты записи и вытащены на свет Божий. Всем Спасибо!
Не забывайте говорить Спасибо. Не уходите с раздачи!   
Торрент: Зарегистрирован [20 май 2013, 12:03]
Статус:
Проверен
 
.torrent скачан: 0 раз
Хэш: cdd5913cb7c3f7adda4fb6a4813aabca2eb15022
Размер: 367.89 МБ (385 760 508 байт)
   Стать Автором раздачи
   
Цитата
  • Похожие торренты
    Ответы
    Просмотры
    Последнее сообщение

Вернуться в Отечественная рок-музыка (оцифровки)

Кто сейчас на конференции

Сейчас эту тему просматривают: нет зарегистрированных пользователей и гости: 1