(Rock/Hard Rock, Heavy Metal) [2LP] [24/192] Ария - 1989, 1990, APE (image+.cue), (Мелодия C60 27413 000/C60 29907 000)

 Статистика раздачи 
Размер: 2.97 ГБ   |  Зарегистрирован: 17 июл 2011, 04:03   |   .torrent скачан: 0 раз
Сидеров: 0  [ 0 байт/сек ]     Личеров: 0  [ 0 байт/сек ]  
  
Аватара пользователя
Главный редактор
Главный редактор
 
Раздал: 90.01 ТБ
Скачал: 3.78 ТБ
Ратио: 24.248
Сообщения: 285975
Стаж: 9 лет 4 месяца 1 день
Откуда: Санкт-Петербург

samopal records писал(а):
Цитата:
...сижу-пытаюсь цифрануть Арию. Что-то у меня к ней душа не лежит - уж больно пропесочен дисочек... Посмотрю как вторая сторона.

}{оттаб писал(а):
Цитата:
Я с большим удовольствием и с песком бы послушал.
А обрабатывать это не то.Оригинальность это самое главное на мой взгляд в оцифровках.

samopal records писал(а):
Цитата:
Добро, попробую сделать... Но, как говорится: "Кто не спрятался - я не виноват"!

Попробовал - сделал. Материал сложный оказался. Игру с огнём два дня собирал по кускам - от одного скачка иглы до другого. Герой асфальта лучше сохранился и, кстати, записан гораздо лучше чем Игра.
}{оттаб
, раздачу позиционирую как "временная"! Послушай, если звук не понравится - удалю.
Да... Ещё: из-за отсутствия в моей квартире возможности нормально заземлиться в паузах слышен лёгкий низкочастотный фон. Заземлился от TV - антенны, большая часть наводок, правда исчезла, но всё равно ерунда - эта "земля" долбит, почему-то, довольно ощутимо током. Самое интересное, что этот фон периодически куда-то исчезает...
Ария - 1989, 1990
Жанр: Rock/Hard Rock, Heavy Metal
Годы выпуска: 1989, 1990
Лейбл: Мелодия
Страна-производитель: USSR
Аудио кодек: APE
Тип рипа: image+.cue
Формат записи: 24/192
Формат раздачи: 24/192
Общая продолжительность: 01:19:38
Источник оцифровки: автором раздачи
Код класса состояния винила: VG
Устройство воспроизведения: "Arija - 102"
Предварительный усилитель: "AMX - 100 (LTO®)"
АЦП: Juli@
Программа-оцифровщик: Adobe Audition
Обработка: без обработки
Тэги в .cue sheet: прописаны
Герой Асфальта
Bass – Виталий Дубинин
Drums – Михаил Удалов*
Engineer – Р. Рагимов*
Guitar – Владимир Холстинин, Сергей Маврин
Leader – В. Векштейн*
Lyrics By – М. Пушкина*
Supervised By [Редактор] – О. Глушкова*
Vocals – Валерий Кипелов, Виталий Дубинин

Игра С Огнем
Bass – Виталий Дубинин
Drums – Александр Манякин
Guitar – Владимир Холстинин, Сергей Маврин
Lyrics By – М. Пушкина*
Music By – В. Дубинин*, В. Холстинин*
Vocals – Валерий Кипелов
A1 На Службе Силы Зла
Music By – В. Дубинин, В. Холстинин
A2 Герой Асфальта
Music By – В. Дубинин, С. Маврин
A3 Мертвая Зона
Music By – В. Кипелов
B1 Тысяча Сто
Music By – В. Холстинин
B2 Улица Роз
Music By – В. Дубинин
B3 Баллада О Древнерусском Воине
Music By – В. Дубинин, В. Холстинин

REM GENRE Rock/Hard Rock, Heavy Metal
REM DATE 1989
REM COMENT Мелодия C60 27413 000 LP
TITLE Герой Асфальта (запись 1987 года)
PERFORMER Ария
FILE "Side 1.ape" WAVE
TRACK 01 AUDIO
TITLE "На службе силы зла"
INDEX 01 00:00:00
TRACK 02 AUDIO
TITLE "Герой асфальта"
INDEX 01 07:31:14
TRACK 03 AUDIO
TITLE "Мертвая зона"
INDEX 01 12:42:66
FILE "Side 2.ape" WAVE
TRACK 04 AUDIO
TITLE "1100"
INDEX 01 00:00:00
TRACK 05 AUDIO
TITLE "Улица Роз"
INDEX 01 05:12:60
TRACK 06 AUDIO
TITLE "Баллада о древнерусском воине"
INDEX 01 11:07:55
A1 Что Вы Сделали С Вашей Мечтой?
A2 Раскачаем Этот Мир
A3 Раб Страха
A4 Искушение
B1 Игра С Огнем
B2 Бой Продолжается
B3 Дай Жару!

REM GENRE Rock/Hard Rock, Heavy Metal
REM DATE 1990
REM COMENT Мелодия C60 29907 000 LP
TITLE Игра С Огнем (запись 1989 года)
PERFORMER Ария
FILE "Side 1.ape" WAVE
TRACK 01 AUDIO
TITLE "Что вы сделали с вашей мечтой ?"
INDEX 01 00:00:00
TRACK 02 AUDIO
TITLE "Раскачаем этот мир"
INDEX 01 05:40:49
TRACK 03 AUDIO
TITLE "Раб страха"
INDEX 01 11:41:11
TRACK 04 AUDIO
TITLE "Искушение"
INDEX 01 16:19:41
FILE "Side 2.ape" WAVE
TRACK 05 AUDIO
TITLE "Игра с огнём"
INDEX 01 00:00:00
TRACK 06 AUDIO
TITLE "Бой продолжается"
INDEX 01 09:26:58
TRACK 07 AUDIO
TITLE "Дай жару!"
INDEX 01 15:36:61
Тридцатисекундные сэмплы с каждой сторон пластинок в папках 03. Samples.
Не забывайте говорить Спасибо. Не уходите с раздачи!   
Торрент: Зарегистрирован [17 июл 2011, 04:03]
Статус:
Проверен
 
.torrent скачан: 0 раз
Хэш: 444ea52ee87889983bca26872bd2e3c8e91ede1c
Размер: 2.97 ГБ (3 193 435 364 байт)
   Стать Автором раздачи
   
Цитата
  • Похожие торренты
    Ответы
    Просмотры
    Последнее сообщение

Вернуться в Отечественная рок-музыка (оцифровки)

Кто сейчас на конференции

Сейчас эту тему просматривают: нет зарегистрированных пользователей и гости: 1