(Rock) [LP] [24/192] Настя - Ноа Ноа - 1989 / 1991, WavPack (image+.cue)

 Статистика раздачи 
Размер: 1.75 ГБ   |  Зарегистрирован: 24 фев 2013, 14:16   |   .torrent скачан: 0 раз
Сидеров: 0  [ 0 байт/сек ]     Личеров: 0  [ 0 байт/сек ]  
  
Аватара пользователя
Главный редактор
Главный редактор
 
Раздал: 90.01 ТБ
Скачал: 3.78 ТБ
Ратио: 24.248
Сообщения: 285101
Стаж: 9 лет 3 месяца 25 дней
Откуда: Санкт-Петербург

Настя - Ноа Ноа

Жанр: Rock
Год выпуска: 1989 / 1991
Лейбл: ЭРИО / С 60-00011
Страна-производитель: USSR
Аудио кодек: WavPack
Тип рипа: image+.cue
Формат записи: 24/192
Формат раздачи: 24/192
Продолжительность: 00:43:41
Трэклист:
A1. Том Сойер (5:30)
A2. В чужом лице (3:35)
A3. Стратосфера (5:32)
A4. Бабочка (4:42)
A5. Колеса (4:10)
B1. Ленивые огни (5:19)
B2. Марш плывущих Офелий (4:36)
B3. Черный парус (5:42)
B4. Ноа Ноа (4:35)
Источник оцифровки: Oleg39
Класс состояния винила: NM
Устройство воспроизведения: Thorens TD124 mkII + SME 3012 Series II
Головка звукоснимателя: Clearaudio Stradivari
Предварительный усилитель: Van den Hul The Grail (Accumulator driven version)
АЦП: E-MU 0404 USB (ASIO)
Программа-оцифровщик: WaveLab 6
Обработка: Сжатие в wv - Monkey's Audio 4.01, Теги - CUEBeautifier 0.4.31.2
REM GENRE "Rock"
REM DATE 1989
REM DISCID С 60-00011
REM COMMENT "ЭРИО, Recorded in 1989 in Sverdlovsk, Released 1991, USSR, Needledrop By Oleg39"
PERFORMER "Настя"
TITLE "Ноа Ноа"
FILE "Nastya - 1989 - Noa Noa [NLV 24-192].wv" WAVE
TRACK 01 AUDIO
TITLE "Том Сойер"
PERFORMER "Настя"
INDEX 01 00:00:00
TRACK 02 AUDIO
TITLE "В чужом лице"
PERFORMER "Настя"
INDEX 01 05:29:48
TRACK 03 AUDIO
TITLE "Стратосфера"
PERFORMER "Настя"
INDEX 01 09:04:31
TRACK 04 AUDIO
TITLE "Бабочка"
PERFORMER "Настя"
INDEX 01 14:36:48
TRACK 05 AUDIO
TITLE "Колеса"
PERFORMER "Настя"
INDEX 01 19:18:34
TRACK 06 AUDIO
TITLE "Ленивые огни"
PERFORMER "Настя"
INDEX 01 23:28:12
TRACK 07 AUDIO
TITLE "Марш плывущих Офелий"
PERFORMER "Настя"
INDEX 01 28:47:25
TRACK 08 AUDIO
TITLE "Черный парус"
PERFORMER "Настя"
INDEX 01 33:23:23
TRACK 09 AUDIO
TITLE "Ноа Ноа"
PERFORMER "Настя"
INDEX 01 39:05:60
Запись сделана в 1989 году студии Свердловского рок-клуба.
Не забывайте говорить Спасибо. Не уходите с раздачи!   
Торрент: Зарегистрирован [24 фев 2013, 14:16]
Статус:
Проверен
 
.torrent скачан: 0 раз
Хэш: 48088a380f89321379642160403cc425218b5d0f
Размер: 1.75 ГБ (1 874 731 666 байт)
   Стать Автором раздачи
   
Цитата
  • Похожие торренты
    Ответы
    Просмотры
    Последнее сообщение

Вернуться в Отечественная рок-музыка (оцифровки)

Кто сейчас на конференции

Сейчас эту тему просматривают: нет зарегистрированных пользователей и гости: 1