(Thrash Metal) [MC][24/96] Коррозия металла - Задержите поезд - 1996, APE (image+.cue)

 Статистика раздачи 
Размер: 830.88 МБ   |  Зарегистрирован: 26 мар 2013, 14:48   |   .torrent скачан: 0 раз
Сидеров: 0  [ 0 байт/сек ]     Личеров: 0  [ 0 байт/сек ]  
  
Аватара пользователя
Главный редактор
Главный редактор
 
Раздал: 90.01 ТБ
Скачал: 3.78 ТБ
Ратио: 24.248
Сообщения: 285812
Стаж: 9 лет 3 месяца 29 дней
Откуда: Санкт-Петербург

Коррозия металла - Задержите поезд
Жанр: Thrash Metal
Год выпуска: 1996
Лейбл: Союз, SZ0591-96
Страна-производитель: Россия
Продолжительность: 00:38:00
Треклист:
Side1:
1. Задержите поезд
2. Доктор Франкенштейн
3. Слишком поздно
4. Рэп - это кал (Пиздец гопоте)
5. Садизм
6. Trash Around Кремль
Side2:
7. Fucking militia
8. Punk not dead
9. God father
10. Come to Sabbath
11. Дьявольский контракт
12. Омовение трупов.
Источник оцифровки: автором раздачи
Устройство воспроизведения: Дека Technics RS-TR 575
Предварительный усилитель: Встроенный
АЦП: Creative "Sound Blaster X-Fi Titanium" SB0880 (PCI-E x1)
Программа-оцифровщик: Wavepurity 6.50
Обработка: Нет
Аудио кодек: Ape
Тип рипа: image+.cue
Формат записи: 24/96
Формат раздачи: 24/96
Раздача создана не для ругани и срача, а для развлечения.
Это оцифровка с кассеты, которая никогда не будет звучать как рип с пластинки, так что качество звука можно только хвалить.
Имеющие отличное от такового мнение могут упражняться в других раздачах.
(с) Крио

PERFORMER "Korrozia metalla"
TITLE "zaderjite poezd"
FILE "side1.ape" MP3
TRACK 01 AUDIO
TITLE "zaderjite poezd"
PERFORMER "Korrozia metalla"
INDEX 01 00:00:00
TRACK 02 AUDIO
TITLE "dr frankenstein"
PERFORMER "Korrozia metalla"
INDEX 01 03:44:00
TRACK 03 AUDIO
TITLE "too late"
PERFORMER "Korrozia metalla"
INDEX 01 07:25:00
TRACK 04 AUDIO
TITLE "rap - kal"
PERFORMER "Korrozia metalla"
INDEX 01 13:00:00
TRACK 05 AUDIO
TITLE "sadizm"
PERFORMER "Korrozia metalla"
INDEX 01 14:46:00
TRACK 06 AUDIO
TITLE "thrash around kremlin"
PERFORMER "Korrozia metalla"
INDEX 01 15:59:00
FILE "side2.ape" MP3
TRACK 07 AUDIO
TITLE "Fucking militia"
PERFORMER "Korrozia metalla"
INDEX 01 00:00:00
TRACK 08 AUDIO
TITLE "Punk not dead"
PERFORMER "Korrozia metalla"
INDEX 01 03:47:00
TRACK 09 AUDIO
TITLE "God father"
PERFORMER "Korrozia metalla"
INDEX 01 06:14:00
TRACK 10 AUDIO
TITLE "Come to Sabbath"
PERFORMER "Korrozia metalla"
INDEX 01 09:43:00
TRACK 11 AUDIO
TITLE "Дьявольский контракт"
PERFORMER "Korrozia metalla"
INDEX 01 12:59:00
TRACK 12 AUDIO
TITLE "Омовение трупов"
PERFORMER "Korrozia metalla"
INDEX 01 17:09:00
Не забывайте говорить Спасибо. Не уходите с раздачи!   
Торрент: Зарегистрирован [26 мар 2013, 14:48]
Статус:
Проверен
 
.torrent скачан: 0 раз
Хэш: 8c930808075bbc5a71cea58fc6736313357918cd
Размер: 830.88 МБ (871 245 491 байт)
   Стать Автором раздачи
   
Цитата

Вернуться в Отечественная рок-музыка (оцифровки)

Кто сейчас на конференции

Сейчас эту тему просматривают: нет зарегистрированных пользователей и гости: 1