(RussiaRock, Experimental/decadency) [LP] [16/44,1] Вова И ОВД - Невозможная Любовь - 1992, FLAC (tracks)

 Статистика раздачи 
Размер: 221.25 МБ   |  Зарегистрирован: 19 фев 2012, 18:51   |   .torrent скачан: 0 раз
Сидеров: 0  [ 0 байт/сек ]     Личеров: 0  [ 0 байт/сек ]  
  
Аватара пользователя
Главный редактор
Главный редактор
 
Раздал: 90.01 ТБ
Скачал: 3.78 ТБ
Ратио: 24.248
Сообщения: 285615
Стаж: 9 лет 3 месяца 28 дней
Откуда: Санкт-Петербург

Вова И ОВД - Невозможная Любовь 1992
Жанр: RussiaRock, Experimental/decadency
Год выпуска: 1992
Лейбл: FeeLee – FL 3 015
Страна-производитель: Russia
Аудио кодек: FLAC
Тип рипа: tracks
Формат записи: 16/44,1
Формат раздачи: 16/44,1
Продолжительность: 37 min
Источник оцифровки: автором раздачи
Программа-оцифровщик: WaveLab 6.11
Обработка: non
Треклист:
A1 Невозможная Любовь 3:58
A2 Любовь 5:20
A3 Зина 4:05
A4 Аборт (Featuring – Наталья Пивоварова) 4:13
B1 Спи 2:18
B2 Зубоскал 5:32
B3 Имя 4:16
B4 Скука 7:20

REM GENRE RussiaRock, Experimental/decadency
REM DATE 1992
REM COMENT FeeLee – FL 3 015 [LP] RUSSIA
TITLE Невозможная Любовь
PERFORMER Вова И ОВД
FILE "_01_.flac" WAVE
TRACK 01 AUDIO
TITLE "01. Невозможная любовь"
INDEX 01 00:00:00
TRACK 02 AUDIO
TITLE "02. Любовь"
INDEX 01 03:59:28
TRACK 03 AUDIO
TITLE "03. Зина"
INDEX 01 09:18:18
TRACK 04 AUDIO
TITLE "04. Аборт"
INDEX 01 13:22:27
FILE "_02_.flac" WAVE
TRACK 05 AUDIO
TITLE "05. Спи"
INDEX 01 00:00:00
TRACK 06 AUDIO
TITLE "06. Зубоскал"
INDEX 01 02:23:63
TRACK 07 AUDIO
TITLE "07. Имя"
INDEX 01 07:56:02
TRACK 08 AUDIO
TITLE "08. Скука"
INDEX 01 12:12:72
Доп. информация (от LEXS-XX) : Сольный альбом шоумена из Аукцыона, сотрудничавшего с группами: Бригада С, НЭП, Время любить, НОМ, Колибри, НАТЕ - Владимира Веселкина. Для записи альбома Веселкин покинул Аукцыон. Несколько песен дуэтом исполнила Наталья Пивоварова (ныне покойная) солистка "Колибри". На песни были сняты несколько клипов. Концептуальный декаданс, альбом посвящен творчеству американского художника Тома оф Финланда, в аранжировке активно участвовал пианист Юрий Соболев. Альбом на Апрелевском заводе грампластинок отказывались печатать по причине "слишком откровенных текстов" и якобы "непечатного оформления конверта". Второй альбом "Это было ее окружение" не состоялся было записано всего две песни. "Зинуля" гремела на SNC в свое время.
Не забывайте говорить Спасибо. Не уходите с раздачи!   
Торрент: Зарегистрирован [19 фев 2012, 18:51]
Статус:
Проверен
 
.torrent скачан: 0 раз
Хэш: 4505bdd328b6232655ebbc1389eaef5df3d20fc9
Размер: 221.25 МБ (231 993 466 байт)
   Стать Автором раздачи
   
Цитата

Вернуться в Отечественная рок-музыка (оцифровки)

Кто сейчас на конференции

Сейчас эту тему просматривают: нет зарегистрированных пользователей и гости: 1