(Punk)[MC][16/44,1] Олег Сур (Флирт) - Акустика - 2004, FLAC (image+.cue), lossless

 Статистика раздачи 
Размер: 234.55 МБ   |  Зарегистрирован: 13 май 2013, 14:02   |   .torrent скачан: 0 раз
Сидеров: 0  [ 0 байт/сек ]     Личеров: 0  [ 0 байт/сек ]  
  
Аватара пользователя
Главный редактор
Главный редактор
 
Раздал: 90.01 ТБ
Скачал: 3.78 ТБ
Ратио: 24.248
Сообщения: 288775
Стаж: 9 лет 5 месяцев 8 дней
Откуда: Санкт-Петербург

Олег Сур (Флирт) / Акустика
Жанр: Punk
Страна-производитель диска: Россия
Год издания: 2004
Издатель (лейбл): МуШка Rec.
Страна: Россия
Аудиокодек: FLAC (*.flac)
Формат записи: 24/44,1 Bit/kHz
Формат раздачи: 16/44,1 Bit/kHz
Тип рипа
: image+.cue
Битрейт аудио: lossless
Продолжительность: 00:32:08
Источник (релизер): Оцифровано с оригинальной пленки
Наличие сканов в содержимом раздачи: да
Код: Выделить всё
01. Всё Хуета
 02. Сплошная Хуйня
 03. Скоро Весна
 04. На Смерть России (Эх, Бля!)
 05. Танька
 06. Отравленный Воздух
 07. Город Лжи
 08. Возвращение (Здравствуй Мама)
 09. В Нашем Городе (Звездочки)
 10. Пепел Фюрера
 11. Ивашка
 12. Белый Век
 13. Вольница
Код: Выделить всё
REM GENRE "Garage"
REM DATE 2004
REM LABEL "МуШка Rec."
REM COMMENT "Tape record & mastering OLMIN"
TITLE "Акустика"
PERFORMER "Олег Сур"
FILE "Олег Сур (ФЛИРТ) - Акустика 12.02.2004 г.flac" WAVE
  TRACK 01 AUDIO
    TITLE "Всё Хуета"
    INDEX 01 00:00:00
  TRACK 02 AUDIO
    TITLE "Сплошная Хуйня"
    INDEX 01 01:58:11
  TRACK 03 AUDIO
    TITLE "Скоро Весна"
    INDEX 01 03:49:39
  TRACK 04 AUDIO
    TITLE "На Смерть России (Эх, Бля)"
    INDEX 01 06:45:02
  TRACK 05 AUDIO
    TITLE "Танька"
    INDEX 01 09:42:11
  TRACK 06 AUDIO
    TITLE "Отравленный Воздух"
    INDEX 01 11:59:45
  TRACK 07 AUDIO
    TITLE "Город Лжи"
    INDEX 01 14:47:22
  TRACK 08 AUDIO
    TITLE "Возвращение (Здраствуй Мама)"
    INDEX 01 17:40:46
  TRACK 09 AUDIO
    TITLE "В Нашем Городе (Звездочки)"
    INDEX 01 20:54:25
  TRACK 10 AUDIO
    TITLE "Пепел Фюрера"
    INDEX 01 22:49:60
  TRACK 11 AUDIO
    TITLE "Ивашка"
    INDEX 01 25:08:09
  TRACK 12 AUDIO
    TITLE "Белый Век"
    INDEX 01 28:30:32
  TRACK 13 AUDIO
    TITLE "Вольница"
    INDEX 01 29:08:53
Код: Выделить всё
AUDIOCHECKER v2.0 beta (build 457) - by Dester - opdester@freemail.hu
~~~~~~~~~~~~~~~~~~~~~~~~~~~~~~~~~~
Started at: понедельник, 13. 05. 2013. - 23:23.47
1 file found
1 -===- C:\Documents and Settings\Loner\Рабочий стол\Олег Сур (ФЛИРТ) - Акустика 12.02.2004 г\Олег Сур (ФЛИРТ) - Акустика 12.02.2004 г.flac
  Extracted successfully
  Conclusion: this track is CDDA with probability 100%
  Tempfile successfully deleted.
Finished at: понедельник, 13. 05. 2013. - 23:27.14 (operation time: 0:03.26)
Код: Выделить всё
[url=https://fastpic.ru/view/46/2013/0515/e02c2456c5e257773c7b8bddf0f195fe.jpg.html][img]https://i46.fastpic.ru/thumb/2013/0515/fe/e02c2456c5e257773c7b8bddf0f195fe.jpeg[/img][/url]
Код: Выделить всё
[url=https://fastpic.ru/view/48/2013/0515/225a35be69ffb6846c622114041b7f1b.jpg.html][img]https://i48.fastpic.ru/thumb/2013/0515/1b/225a35be69ffb6846c622114041b7f1b.jpeg[/img][/url]
Код: Выделить всё
[url=https://fastpic.ru/view/46/2013/0515/7010402a721518d0481235d1adae36d6.jpg.html][img]https://i46.fastpic.ru/thumb/2013/0515/d6/7010402a721518d0481235d1adae36d6.jpeg[/img][/url]
Код: Выделить всё
Устройство записи, воспроизведения: TEAC V-33
Предварительный усилитель: Линейный выход
АЦП: Realtek High Definition v6.6
Программа-оцифровщик: Magix Audio Cleaning Lab 2013
Обработка: Magix Audio Cleaning Lab 2013 - equaliser, multimax, brilliance, stereo FX, DeClicker, DeHisser, DeNoiser, DeClipper.
Альбом записан, оцифрован и отмастерен с оригинальной плёнки Сергеем ОЛМИНым (гр. "Флирт") в 2013 г.
г. Усолье-Сибирское 12.02.2004
Олег Сур - гитара, голос.
Не забывайте говорить Спасибо. Не уходите с раздачи!   
Торрент: Зарегистрирован [13 май 2013, 14:02]
Статус:
Проверен
 
.torrent скачан: 0 раз
Хэш: 0afdb183dc3b876282a33fd51d28dc4ebee68b89
Размер: 234.55 МБ (245 942 342 байт)
   Стать Автором раздачи
   
Цитата
  • Похожие торренты
    Ответы
    Просмотры
    Последнее сообщение

Вернуться в Отечественная рок-музыка (оцифровки)

Кто сейчас на конференции

Сейчас эту тему просматривают: нет зарегистрированных пользователей и гости: 1