(Alternative Rock) Гр. Рубль - Сингл (7'' Vinyl) - 2009, FLAC (image+.cue), lossless

 Статистика раздачи 
Размер: 87.18 МБ   |  Зарегистрирован: 27 апр 2009, 21:42   |   .torrent скачан: 0 раз
Сидеров: 0  [ 0 байт/сек ]     Личеров: 0  [ 0 байт/сек ]  
  
Аватара пользователя
Главный редактор
Главный редактор
 
Раздал: 90.01 ТБ
Скачал: 3.78 ТБ
Ратио: 24.248
Сообщения: 286171
Стаж: 9 лет 4 месяца 3 дня
Откуда: Санкт-Петербург

Гр. Рубль - Сингл (7'' Vinyl)
Жанр: Alternative Rock
Год выпуска диска: 2009
Производитель диска: Россия
Аудио кодек: FLAC
Тип рипа: image+.cue
Битрейт аудио: lossless
Продолжительность: 00:10:04
Трэклист:
01 - Ничего Нового (2:36)
02 - Олимпиада (2:55)
03 - Финский Залив (1:34)
04 - П*здец (2:59)
Доп. информация:
Exact Audio Copy V0.99 prebeta 4 from 23. January 2008
EAC extraction logfile from 28. April 2009, 2:17
Гр. Рубль / Сингл (7'' Vinyl)
Used drive : ASUS CRW-5232AS Adapter: 0 ID: 1
Read mode : Secure
Utilize accurate stream : Yes
Defeat audio cache : Yes
Make use of C2 pointers : No
Read offset correction : 6
Overread into Lead-In and Lead-Out : No
Fill up missing offset samples with silence : Yes
Delete leading and trailing silent blocks : No
Null samples used in CRC calculations : Yes
Used interface : Installed external ASPI interface
Used output format : Internal WAV Routines
Sample format : 44.100 Hz; 16 Bit; Stereo
TOC of the extracted CD
Track | Start | Length | Start sector | End sector
---------------------------------------------------------
1 | 0:00.00 | 2:36.40 | 0 | 11739
2 | 2:36.40 | 2:55.20 | 11740 | 24884
3 | 5:31.60 | 1:34.09 | 24885 | 31943
4 | 7:05.69 | 2:59.14 | 31944 | 45382
Range status and errors
Selected range
Filename C:\Documents and Settings\karaspunk\Рабочий стол\Гр. Рубль\2009 - Сингл (7'' Vinyl) [FLAC]\Гр. Рубль - Сингл (7'' Vinyl).wav
Peak level 100.0 %
Range quality 100.0 %
Copy CRC 2C73BDD3
Copy OK
No errors occurred
End of status report
Рип с винила, потом записано на CD. В раздаче фото винила.
Не забывайте говорить Спасибо. Не уходите с раздачи!   
Торрент: Зарегистрирован [27 апр 2009, 21:42]
Статус:
Проверен
 
.torrent скачан: 0 раз
Хэш: a7d34d90ddcb907f98af2ed864a83479179a205b
Размер: 87.18 МБ (91 418 040 байт)
   Стать Автором раздачи
   
Цитата

Вернуться в Отечественная рок-музыка (оцифровки)

Кто сейчас на конференции

Сейчас эту тему просматривают: нет зарегистрированных пользователей и гости: 1