Стекло / Glass (2019) BDRip [H.265] [10-bit]

 Статистика раздачи 
Размер: 1.65 ГБ   |  Зарегистрирован: 18 ноя 2019, 18:15   |   .torrent скачан: 36 раз
Сидеров: 7  [ 0 байт/сек ]     Личеров: 2  [ 0 байт/сек ]  
  
Аватара пользователя
 
Раздал: 311.05 МБ
Скачал: 1.9 ГБ
Ратио: 0.160
Сообщения: 250610
Стаж: 8 лет 9 месяцев 24 дня
Откуда: Rossiya
СообщениеДобавлено: 18 ноя 2019, 18:15


Стекло / Glass (2019) BDRip [H.265] [10-bit]

Производство: США / Walt Disney Pictures, Universal Pictures, Blinding Edge Pictures
Жанр: Фантастика, триллер, драма, детектив

Режиссер: М. Найт Шьямалан
Актеры: Джеймс МакЭвой, Брюс Уиллис, Сэмюэл Л. Джексон, Сара Полсон, Аня Тейлор-Джой, Спенсер Трит Кларк, Чарлэйн Вудард, Люк Кирби, Адам Дэвид Томпсон, М. Найт Шьямалан

Описание:
В поисках встречи с обладающим фантастическими способностями и снова убивающем девушек Зверем Дэвид Данн выходит на след Кевина Крамба. Но решающая схватка не успевает состояться, наших героев ловят и отправляют в психиатрическую больницу. Там уже содержится хрупкий человек Элайджа Прайс, несколько лет назад устроивший крушение поезда, единственным выжившим в котором оказался Дэвид. Психиатр Элли Стэйпл пытается убедить этих трёх пациентов, что они не обладают сверхспособностями, и всему можно найти рациональное объяснение.

https://www.imdb.com/title/tt6823368/?ref_=plg_rt_1
Возраст: 16+ (зрителям, достигшим 16 лет)
Рейтинг MPAA: PG-13 (детям до 13 лет просмотр нежелателен)
Дата мировой премьеры: 7 января 2019
Дата премьеры в России: 17 января 2019

Продолжительность: 02:09:01
Качество видео: BDRip
Перевод: Дублированный (iTunes)
Субтитры: Русские (форсированные), английские (полные, SDH)

Видео: HEVC/H.265, 1024x428, 1472 Kbps
Аудио 1: AC3, 2 ch, 160 Kbps | Русский
Аудио 2: AC3, 2 ch, 160 Kbps | Английский
Код: Выделить всё
Общее
Уникальный идентификатор                 : 307079628731057783035714426413235779351 (0xE705629E54D8B1865B19EB8BC21F3717)
Полное имя                               : Glass.2019.BDRip.10bit.HEVC.mkv
Формат                                   : Matroska
Версия формата                           : Version 4 / Version 2
Размер файла                             : 1,65 Гбайт
Продолжительность                        : 2 ч. 9 м.
Общий поток                              : 1828 Кбит/сек
Название фильма                          : Glass 2019
Программа кодирования                    : XviD4PSP 8.0.91
Библиотека кодирования                   : Lavf58.20.100
ErrorDetectionType                       : Per level 1
ENCODING_INFO                            : MATROSKA,WEBM > MKV

Видео
Идентификатор                            : 1
Формат                                   : HEVC
Формат/Информация                        : High Efficiency Video Coding
Профиль формата                          : Main [url=http://nnmclub.to/mailto:10@L4.1]10@L4.1[/url]@High
Идентификатор кодека                     : V_MPEGH/ISO/HEVC
Продолжительность                        : 2 ч. 9 м.
Битрейт                                  : 1472 Кбит/сек
Ширина                                   : 1024 пикселя
Высота                                   : 428 пикселей
Соотношение сторон                       : 2,40:1
Режим частоты кадров                     : Постоянный
Частота кадров                           : 23,976 (24000/1001) кадра/сек
Цветовое пространство                    : YUV
Субдискретизация насыщенности            : 4:2:0
Битовая глубина                          : 10 бит
Бит/(Пиксели*Кадры)                      : 0.140
Размер потока                            : 1,33 Гбайт (81%)
Язык                                     : English
Default                                  : Да
Forced                                   : Нет
Цветовой диапазон                        : Full
ENCODING_INFO                            : H264 > HEVC NVENC CQ 16 HQ

Аудио #1
Идентификатор                            : 2
Формат                                   : AC-3
Формат/Информация                        : Audio Coding 3
Параметр Endianness формата              : Big
Идентификатор кодека                     : A_AC3
Продолжительность                        : 2 ч. 9 м.
Вид битрейта                             : Постоянный
Битрейт                                  : 160 Кбит/сек
Каналы                                   : 2 канала
Расположение каналов                     : Front: L R
Частота                                  : 48,0 КГц
Частота кадров                           : 31,250 кадров/сек (1536 SPF)
Битовая глубина                          : 16 бит
Метод сжатия                             : С потерями
Размер потока                            : 148 Мбайт (9%)
Заголовок                                : iTunes
Язык                                     : Russian
ServiceKind/String                       : Complete Main
Default                                  : Да
Forced                                   : Нет
ENCODING_INFO                            : AC3 > AC3 CBR 160kbps

Аудио #2
Идентификатор                            : 3
Формат                                   : AC-3
Формат/Информация                        : Audio Coding 3
Параметр Endianness формата              : Big
Идентификатор кодека                     : A_AC3
Продолжительность                        : 2 ч. 9 м.
Вид битрейта                             : Постоянный
Битрейт                                  : 160 Кбит/сек
Каналы                                   : 2 канала
Расположение каналов                     : Front: L R
Частота                                  : 48,0 КГц
Частота кадров                           : 31,250 кадров/сек (1536 SPF)
Битовая глубина                          : 16 бит
Метод сжатия                             : С потерями
Размер потока                            : 148 Мбайт (9%)
Заголовок                                : Original
Язык                                     : English
ServiceKind/String                       : Complete Main
Default                                  : Нет
Forced                                   : Нет
ENCODING_INFO                            : TRUEHD > AC3 CBR 160kbps

Текст #1
Идентификатор                            : 4
Формат                                   : UTF-8
Идентификатор кодека                     : S_TEXT/UTF8
Идентификатор кодека/Информация          : UTF-8 Plain Text
Заголовок                                : Forced
Язык                                     : Russian
Default                                  : Да
Forced                                   : Да
ENCODING_INFO                            : SUBRIP > COPY Быстрое

Текст #2
Идентификатор                            : 5
Формат                                   : UTF-8
Идентификатор кодека                     : S_TEXT/UTF8
Идентификатор кодека/Информация          : UTF-8 Plain Text
Заголовок                                : Full
Язык                                     : English
Default                                  : Нет
Forced                                   : Нет
ENCODING_INFO                            : SUBRIP > COPY Быстрое

Текст #3
Идентификатор                            : 6
Формат                                   : UTF-8
Идентификатор кодека                     : S_TEXT/UTF8
Идентификатор кодека/Информация          : UTF-8 Plain Text
Заголовок                                : SDH
Язык                                     : English
Default                                  : Нет
Forced                                   : Нет
ENCODING_INFO                            : SUBRIP > COPY Быстрое

Меню
00:00:00.000                             : :Глава 01
00:04:08.457                             : :Глава 02
00:09:36.367                             : :Глава 03
00:14:30.078                             : :Глава 04
00:19:49.897                             : :Глава 05
00:24:41.063                             : :Глава 06
00:29:45.826                             : :Глава 07
00:35:00.598                             : :Глава 08
00:39:07.595                             : :Глава 09
00:47:28.220                             : :Глава 10
00:57:16.224                             : :Глава 11
01:02:55.271                             : :Глава 12
01:09:26.828                             : :Глава 13
01:14:30.299                             : :Глава 14
01:21:43.774                             : :Глава 15
01:30:10.530                             : :Глава 16
01:38:15.515                             : :Глава 17
01:44:08.742                             : :Глава 18
01:54:07.215                             : :Глава 19
02:03:00.290                             : :Глава 20

Скриншоты:


Время раздачи: 24/7 (до появления первых 3-5 скачавших)
Не забывайте говорить Спасибо. Не уходите с раздачи!   
Торрент: Зарегистрирован [18 ноя 2019, 18:15]
Статус:
Проверен
 
.torrent скачан: 36 раз
Хэш: ec4295138d7cd7578f77ddd9c0ed7a67565634e9
Размер: 1.65 ГБ (1 770 273 725 байт)
   Стать Автором раздачи
   
Цитата
  • Похожие торренты
    Ответы
    Просмотры
    Последнее сообщение

Вернуться в Зарубежное кино (HDRip, DVDRip)

Кто сейчас на конференции

Сейчас эту тему просматривают: нет зарегистрированных пользователей и гости: 1