Проклятый сезон / Dark Blue (2002) BDRemux 1080p | A, D, P | USA Transfer

 Статистика раздачи 
Размер: 32.42 ГБ   |  Зарегистрирован: 18 ноя 2019, 22:02   |   .torrent скачан: 36 раз
Сидеров: 5  [ 0 байт/сек ]     Личеров: 1  [ 0 байт/сек ]  
  
Аватара пользователя
 
Раздал: 6.64 ТБ
Скачал: 597.93 ГБ
Ратио: 11.363
Сообщения: 248710
Стаж: 2 года 8 месяцев 21 день

Название: Проклятый сезон / Темно-голубой камуфляж
Оригинальное название: Dark Blue
Год выхода: 2002
Жанр: триллер, драма, криминал
Режиссер: Рон Шелтон
В ролях: Курт Расселл, Скотт Спидман, Майкл Мишель, Брендан Глисон, Винг Реймз, Курупт, Дэш Майок, Джонатан Бэнкс, Лолита Давидович, Кэнди Александр, Дэна Ли, Чэпман Расселл Вэй, Марин Хинкль, Джим Коуди Уильямс...


О фильме:
Полицейский департамент Лос-Анджелеса, апрель 1992 года. Действие этого драматического триллера происходит за несколько дней до оправдания четырех белых полицейских в жестоком избиении темнокожего Родни Кинга и последующих беспорядков в Лос-Анджелесе.

В этой напряженной расистской атмосфере, элитному отделу Полицейского Департамента Лос-Анджелеса по специальным расследованиям поручено разобраться с убийствами.



Страна: США, Великобритания, Германия
Продолжительность: 01:57:57
Перевод: Авторский (одноголосый), профессиональный (дублированный), профессиональный (многоголосый)


Качество: BDRemux 1080p
Видео: MPEG-4 AVC, 1920x1080 (16:9), 35.0 Mbps, 23.976 fps
Звук:
№ 1: AC3 | 5.1 | 48.0 kHz | 448 kbps - Авторский Михаил Чадов [перевод 7654] - ненормативная лексика
№ 2: AC3 | 5.1 | 48.0 kHz | 384 kbps - Авторский Андрей Гаврилов
№ 3: AC3 | 5.1 | 48.0 kHz | 448 kbps - Дублированный Мосфильм
№ 4: AC3 | 2.0 | 48.0 kHz | 224 kbps - Многоголосый, закадровый Россия
№ 5: DTS-HD MA | 5.1 | 48.0 kHz | 3966 kbps - English
Субтитры: Русские, английские

General
Unique ID : 316362180101234249799252668731455008320 (0xEE0123BC5B8E35A73A4A2EE20CF56E40)
Complete name : C:MKV-iP27Dark.Blue.2002.BDRemux.[iP27].mkv
Format : Matroska
Format version : Version 4
File size : 32.4 GiB
Duration : 1 h 57 min
Overall bit rate mode : Variable
Overall bit rate : 39.3 Mb/s
Encoded date : UTC 2019-11-18 10:00:13
Writing application : mkvmerge v40.0.0 ('Old Town Road + Pony') 64-bit
Writing library : libebml v1.3.9 + libmatroska v1.5.2

Video
ID : 1
Format : AVC
Format/Info : Advanced Video Codec
Format profile : High@L4.1
Format settings : CABAC / 4 Ref Frames
Format settings, CABAC : Yes
Format settings, Reference frames : 4 frames
Codec ID : V_MPEG4/ISO/AVC
Duration : 1 h 57 min
Bit rate mode : Constant
Bit rate : 35.0 Mb/s
Width : 1 920 pixels
Height : 1 080 pixels
Display aspect ratio : 16:9
Frame rate mode : Constant
Frame rate : 23.976 (24000/1001) FPS
Color space : YUV
Chroma subsampling : 4:2:0
Bit depth : 8 bits
Scan type : Progressive
Bits/(Pixel*Frame) : 0.704
Stream size : 27.9 GiB (86%)
Language : English
Default : Yes
Forced : No

Audio #1
ID : 2
Format : AC-3
Format/Info : Audio Coding 3
Commercial name : Dolby Digital
Codec ID : A_AC3
Duration : 1 h 57 min
Bit rate mode : Constant
Bit rate : 448 kb/s
Channel(s) : 6 channels
Channel layout : L R C LFE Ls Rs
Sampling rate : 48.0 kHz
Frame rate : 31.250 FPS (1536 SPF)
Compression mode : Lossy
Stream size : 378 MiB (1%)
Title : AVO (М. Чадов) [перевод 7654]
Language : Russian
Service kind : Complete Main
Default : Yes
Forced : No

Audio #2
ID : 3
Format : AC-3
Format/Info : Audio Coding 3
Commercial name : Dolby Digital
Codec ID : A_AC3
Duration : 1 h 57 min
Bit rate mode : Constant
Bit rate : 384 kb/s
Channel(s) : 6 channels
Channel layout : L R C LFE Ls Rs
Sampling rate : 48.0 kHz
Frame rate : 31.250 FPS (1536 SPF)
Compression mode : Lossy
Stream size : 324 MiB (1%)
Title : AVO (А. Гаврилов)
Language : Russian
Service kind : Complete Main
Default : No
Forced : No

Audio #3
ID : 4
Format : AC-3
Format/Info : Audio Coding 3
Commercial name : Dolby Digital
Codec ID : A_AC3
Duration : 1 h 57 min
Bit rate mode : Constant
Bit rate : 448 kb/s
Channel(s) : 6 channels
Channel layout : L R C LFE Ls Rs
Sampling rate : 48.0 kHz
Frame rate : 31.250 FPS (1536 SPF)
Compression mode : Lossy
Stream size : 378 MiB (1%)
Title : Dub (Мосфильм)
Language : Russian
Service kind : Complete Main
Default : No
Forced : No

Audio #4
ID : 5
Format : AC-3
Format/Info : Audio Coding 3
Commercial name : Dolby Digital
Codec ID : A_AC3
Duration : 1 h 57 min
Bit rate mode : Constant
Bit rate : 224 kb/s
Channel(s) : 2 channels
Channel layout : L R
Sampling rate : 48.0 kHz
Frame rate : 31.250 FPS (1536 SPF)
Compression mode : Lossy
Stream size : 189 MiB (1%)
Title : MVO (Россия)
Language : Russian
Service kind : Complete Main
Default : No
Forced : No

Audio #5
ID : 6
Format : DTS XLL
Format/Info : Digital Theater Systems
Commercial name : DTS-HD Master Audio
Codec ID : A_DTS
Duration : 1 h 57 min
Bit rate mode : Variable
Bit rate : 3 966 kb/s
Channel(s) : 6 channels
Channel layout : C L R Ls Rs LFE
Sampling rate : 48.0 kHz
Frame rate : 93.750 FPS (512 SPF)
Bit depth : 24 bits
Compression mode : Lossless
Stream size : 3.27 GiB (10%)
Title : Original
Language : English
Default : No
Forced : No

Text #1
ID : 7
Format : UTF-8
Codec ID : S_TEXT/UTF8
Codec ID/Info : UTF-8 Plain Text
Duration : 1 h 50 min
Bit rate : 111 b/s
Count of elements : 1598
Stream size : 90.4 KiB (0%)
Language : Russian
Default : No
Forced : No

Text #2
ID : 8
Format : UTF-8
Codec ID : S_TEXT/UTF8
Codec ID/Info : UTF-8 Plain Text
Duration : 1 h 50 min
Bit rate : 133 b/s
Count of elements : 1418
Stream size : 108 KiB (0%)
Title : [перевод 7654]
Language : Russian
Default : Yes
Forced : No

Text #3
ID : 9
Format : UTF-8
Codec ID : S_TEXT/UTF8
Codec ID/Info : UTF-8 Plain Text
Duration : 1 h 50 min
Bit rate : 74 b/s
Count of elements : 1426
Stream size : 60.7 KiB (0%)
Language : English
Default : No
Forced : No

Menu
00:00:00.000 : en:Chapter 1
00:00:10.927 : en:Chapter 2
00:14:40.421 : en:Chapter 3
00:30:11.726 : en:Chapter 4
00:44:11.565 : en:Chapter 5
00:59:35.488 : en:Chapter 6
01:15:13.425 : en:Chapter 7
01:26:35.732 : en:Chapter 8
01:42:16.046 : en:Chapter 9
01:58:08.039 : en:Chapter 10


Озвучка - М. Чадов, перевод - 7654. Синхронизация к этому релизу - iP27.
Спасибо pasific2013 за запись с телеканала Россия через видеомагнитофон и оцифровку с видеокассеты.
На русский язык фильм озвучен по заказу телеканала Россия в 2003 году.
Текст читают Александр Груздев, Сергей Чекан, Александр Хотченков и Марина Тарасова.
Синхронизация дорожек №№ 2-4 - Нордер.
Не забывайте говорить Спасибо. Не уходите с раздачи!   
Торрент: Зарегистрирован [18 ноя 2019, 22:02]
Статус:
Проверен
 
.torrent скачан: 36 раз
Хэш: 62cff121cbe20507792ba57965f426d3bff2b494
Размер: 32.42 ГБ (34 808 718 844 байт)
   Стать Автором раздачи
   
Цитата

Вернуться в Зарубежное кино (HD Video)

Кто сейчас на конференции

Сейчас эту тему просматривают: нет зарегистрированных пользователей и гости: 1