Война под крышами (Виктор Туров) [1967, военная драма, HDTVRip-AVC]

 Статистика раздачи 
Размер: 1.48 ГБ   |  Зарегистрирован: 07 ноя 2019, 14:10   |   .torrent скачан: 3 раз
Сидеров: 21  [ 0 байт/сек ]     Личеров: 5  [ 0 байт/сек ]  
  
Аватара пользователя
 
Раздал: 2.75 ТБ
Скачал: 89.62 ГБ
Ратио: 31.394
Сообщения: 222824
Стаж: 3 года 4 месяца 14 дней

Война под крышами
Жанр: военная драма
Год выпуска: 1967
Продолжительность: 01:31:11
Режиссёр: Виктор Туров
В ролях:
Нина Ургант, Елизавета Уварова, Екатерина Васильева, Любовь Малиновская, Дмитрий Капка, Александр Демьяненко, Михаил Матвеев, Александр Захаров, Владимир Мартынов, Владимир Белокуров, Владимир Маслов, Янис Грантиньш, Дмитрий Орлов, Виктор Чекмарев, Владимир Пицек, Юрий Горобец
Описание:
По мотивам романа Алеся Адамовича «Партизаны». С приходом оккупантов заведующая аптекой Анна Корзун установила связь с партизанами и передавала им информацию и медикаменты. Когда над ее домом нависла опасность, Анна, взяв с собой детей, пошла к партизанам.
Сэмпл | Кинопоиск
Качество видео: HDTVRip-AVC
Формат видео: MKV
Видео: x264 (High@L4.1); 936x648, Display aspect ratio 1.444:1, 25.000 fps, 2136 Kbps
Аудио: AC-3; 16 bits 48 Khz; 2.0ch 192 Kbps; CBRgeorge$t писал(а):
Цитата:
Большое спасибо Bartimeyse за предоставленные записи.

Видеоряд скомпилирован из четырех записей фильма белорусского телевидения.

Из посторонних надписей на видео остался только логотип (общий бт3).

Сравнение с DVB
https://rutracker.org/forum/viewtopic.php?t=3572983


avs [info]: 936x648p 1:1 @ 25/1 fps (cfr)
avs [info]: color matrix: bt709
x264 [info]: using SAR=1/1
x264 [info]: using cpu capabilities: MMX2 SSE2Fast SSSE3 SSE4.2
x264 [info]: profile High, level 4.1, 4:2:0, 8-bit
x264 [info]: frame I:595 Avg QP:18.44 size: 50525
x264 [info]: frame P:29004 Avg QP:19.71 size: 23660
x264 [info]: frame B:107199 Avg QP:22.39 size: 6948
x264 [info]: consecutive B-frames: 0.9% 1.8% 8.5% 20.7% 18.0% 44.8% 4.1% 0.7% 0.3% 0.1%
x264 [info]: mb I I16..4: 2.4% 81.2% 16.4%
x264 [info]: mb P I16..4: 0.3% 9.3% 1.7% P16..4: 44.5% 27.2% 14.2% 0.3% 0.1% skip: 2.4%
x264 [info]: mb B I16..4: 0.0% 0.7% 0.2% B16..8: 44.0% 12.8% 3.0% direct: 6.1% skip:33.3% L0:39.4% L1:47.5% BI:13.1%
x264 [info]: 8x8 transform intra:81.6% inter:69.0%
x264 [info]: coded y,uvDC,uvAC intra: 90.8% 0.0% 0.0% inter: 25.4% 0.0% 0.0%
x264 [info]: i16 v,h,dc,p: 17% 14% 5% 64%
x264 [info]: i8 v,h,dc,ddl,ddr,vr,hd,vl,hu: 15% 10% 3% 9% 13% 14% 13% 12% 12%
x264 [info]: i4 v,h,dc,ddl,ddr,vr,hd,vl,hu: 12% 8% 2% 8% 16% 16% 14% 12% 12%
x264 [info]: i8c dc,h,v,p: 100% 0% 0% 0%
x264 [info]: Weighted P-Frames: Y:15.2% UV:0.0%
x264 [info]: ref P L0: 47.1% 15.4% 14.2% 4.7% 4.0% 2.9% 2.8% 1.6% 1.7% 1.4% 1.4% 1.2% 1.4% 0.2% 0.0%
x264 [info]: ref B L0: 88.1% 5.8% 1.9% 1.0% 0.7% 0.6% 0.5% 0.3% 0.3% 0.3% 0.2% 0.2%
x264 [info]: ref B L1: 97.8% 2.2%
x264 [info]: kb/s:2136.12

General
Unique ID : 229605938846029196822005548933115281361 (0xACBC7ECC31F7717BB385938605CFFFD1)
Complete name : Война под крышами.1967.mkv
Format : Matroska
Format version : Version 2
File size : 1.48 GiB
Duration : 1 h 31 min
Overall bit rate : 2 330 kb/s
Encoded date : UTC 2019-11-07 12:05:55
Writing application : mkvmerge v7.8.0 ('River Man') 32bit built on Mar 27 2015 16:18:02
Writing library : libebml v1.3.1 + libmatroska v1.4.2
Video
ID : 1
Format : AVC
Format/Info : Advanced Video Codec
Format profile : High@L4.1
Format settings : CABAC / 13 Ref Frames
Format settings, CABAC : Yes
Format settings, ReFrames : 13 frames
Codec ID : V_MPEG4/ISO/AVC
Duration : 1 h 31 min
Bit rate : 2 092 kb/s
Width : 936 pixels
Height : 648 pixels
Display aspect ratio : 1.444
Frame rate mode : Constant
Frame rate : 25.000 FPS
Color space : YUV
Chroma subsampling : 4:2:0
Bit depth : 8 bits
Scan type : Progressive
Bits/(Pixel*Frame) : 0.138
Stream size : 1.33 GiB (90%)
Title : Война под крышами.1967
Writing library : x264 core 157 r2867+103 0d6443f t_mod_Custom_2 [8-bit@all X86]
Encoding settings : cabac=1 / ref=13 / deblock=1:-2:-2 / analyse=0x3:0x133 / me=umh / subme=10 / psy=1 / fade_compensate=0.00 / psy_rd=1.00:0.00 / mixed_ref=1 / me_range=32 / chroma_me=1 / trellis=2 / 8x8dct=1 / cqm=0 / deadzone=21,11 / fast_pskip=1 / chroma_qp_offset=-2 / threads=12 / lookahead_threads=2 / sliced_threads=0 / nr=0 / decimate=1 / interlaced=0 / bluray_compat=0 / constrained_intra=0 / fgo=0 / bframes=9 / b_pyramid=2 / b_adapt=2 / b_bias=0 / direct=1 / weightb=1 / open_gop=0 / weightp=2 / keyint=250 / keyint_min=25 / scenecut=40 / intra_refresh=0 / rc_lookahead=60 / rc=crf / mbtree=0 / crf=18.8000 / qcomp=0.60 / qpmin=0:0:0 / qpmax=69:69:69 / qpstep=4 / vbv_maxrate=62500 / vbv_bufsize=78125 / crf_max=0.0 / nal_hrd=none / filler=0 / ip_ratio=1.40 / pb_ratio=1.30 / aq=3:0.90 / aq-sensitivity=10.00 / aq-factor=1.00:1.00:1.00 / aq2=0 / aq3=0
Language : Russian
Default : Yes
Forced : No
Color range : Limited
Color primaries : BT.709
Transfer characteristics : BT.709
Matrix coefficients : BT.709
Audio
ID : 2
Format : AC-3
Format/Info : Audio Coding 3
Codec ID : A_AC3
Duration : 1 h 31 min
Bit rate mode : Constant
Bit rate : 192 kb/s
Channel(s) : 2 channels
Channel positions : Front: L R
Sampling rate : 48.0 kHz
Frame rate : 31.250 FPS (1536 SPF)
Bit depth : 16 bits
Compression mode : Lossy
Stream size : 125 MiB (8%)
Title : AC-3; 16 bits 48 Khz; 2.0ch 192 Kbps; CBR
Language : Russian
Service kind : Complete Main
Default : Yes
Forced : No
Не забывайте говорить Спасибо. Не уходите с раздачи!   
Торрент: Зарегистрирован [07 ноя 2019, 14:10]
Статус:
Проверен
 
.torrent скачан: 3 раз
Хэш: e8ef7fe8423f7457283424145b9292be8aae1b24
Размер: 1.48 ГБ (1 593 609 313 байт)
   Стать Автором раздачи
   
Ничто так не успокаивает, как инструктаж по технике безопасности.
Цитата

Вернуться в Кино СССР (Rips)

Кто сейчас на конференции

Сейчас эту тему просматривают: нет зарегистрированных пользователей и гости: 1