Сыновья уходят в бой (Виктор Туров) [1969, военная драма, HDTVRip-AVC]

 Статистика раздачи 
Размер: 2.09 ГБ   |  Зарегистрирован: 07 ноя 2019, 14:08   |   .torrent скачан: 5 раз
Сидеров: 21  [ 0 байт/сек ]     Личеров: 5  [ 0 байт/сек ]  
  
Аватара пользователя
 
Раздал: 2.75 ТБ
Скачал: 89.62 ГБ
Ратио: 31.394
Сообщения: 223103
Стаж: 3 года 4 месяца 16 дней

Сыновья уходят в бой
Жанр: военная драма
Год выпуска: 1969
Продолжительность: 01:33:51
Режиссёр: Виктор Туров
В ролях:
Нина Ургант, Светлана Суховей, Ольга Лысенко, Станислав Чуркин, Константин Григорьев, Юрий Горобец, Дмитрий Капка, Александр Захаров, Владимир Мартынов, Александра Климова, Мария Капнист, Мария Захаревич, Владимир Белокуров, Бронюс Бабкаускас, Владимир Поночевный, Ауримас Бабкаускас
Описание:
По мотивам романа Алеся Адамовича «Партизаны». Вторая часть дилогии о белорусских партизанах, начатая фильмом «Война под крышами», рассказывает о том, как сыновья Анны Корзун в годы Великой Отечественной Войны стали партизанами и участвовали в операциях по освобождению Белоруссии.
Сэмпл | Кинопоиск
Качество видео: HDTVRip-AVC
Формат видео: MKV
Видео: x264 (High@L4.1); 936x648, Display aspect ratio 1.444:1, 25.000 fps, 3000 Kbps
Аудио: AC-3; 16 bits 48 Khz; 2.0ch 192 Kbps; CBRgeorge$t писал(а):
Цитата:
Большое спасибо Bartimeyse за предоставленные записи.

Видеоряд скомпилирован из четырех записей фильма белорусского телевидения. * Звук заметно разборчивей чем в DVB и его производных.

Из посторонних надписей на видео остался только логотип (общий бт3).

Сравнение с DVB
https://rutracker.org/forum/viewtopic.php?t=3563798


avs [info]: 936x648p 1:1 @ 25/1 fps (cfr)
avs [info]: color matrix: bt709
x264 [info]: using SAR=1/1
x264 [info]: using cpu capabilities: MMX2 SSE2Fast SSSE3 SSE4.2
x264 [info]: profile High, level 4.1, 4:2:0, 8-bit
x264 [info]: frame I:623 Avg QP:18.13 size: 68549
x264 [info]: frame P:35786 Avg QP:20.39 size: 29563
x264 [info]: frame B:104370 Avg QP:22.62 size: 9689
x264 [info]: consecutive B-frames: 3.1% 5.4% 14.0% 24.5% 17.1% 31.2% 3.4% 0.8% 0.4% 0.1%
x264 [info]: mb I I16..4: 1.6% 80.0% 18.4%
x264 [info]: mb P I16..4: 0.2% 9.1% 2.3% P16..4: 40.8% 28.8% 16.9% 0.7% 0.1% skip: 1.0%
x264 [info]: mb B I16..4: 0.0% 0.9% 0.4% B16..8: 41.2% 16.7% 5.0% direct: 7.7% skip:28.1% L0:37.3% L1:44.9% BI:17.8%
x264 [info]: 8x8 transform intra:76.6% inter:62.5%
x264 [info]: direct mvs spatial:99.6% temporal:0.4%
x264 [info]: coded y,uvDC,uvAC intra: 93.2% 0.0% 0.0% inter: 34.4% 0.0% 0.0%
x264 [info]: i16 v,h,dc,p: 12% 17% 7% 63%
x264 [info]: i8 v,h,dc,ddl,ddr,vr,hd,vl,hu: 14% 11% 3% 8% 14% 13% 14% 11% 13%
x264 [info]: i4 v,h,dc,ddl,ddr,vr,hd,vl,hu: 11% 8% 2% 8% 15% 15% 15% 12% 14%
x264 [info]: i8c dc,h,v,p: 100% 0% 0% 0%
x264 [info]: Weighted P-Frames: Y:13.9% UV:0.0%
x264 [info]: ref P L0: 51.0% 16.5% 12.6% 4.2% 3.4% 2.4% 2.3% 1.4% 1.4% 1.2% 1.2% 1.0% 1.1% 0.2% 0.0%
x264 [info]: ref B L0: 88.2% 5.8% 1.9% 1.0% 0.7% 0.6% 0.5% 0.3% 0.3% 0.3% 0.2% 0.1%
x264 [info]: ref B L1: 98.0% 2.0%
x264 [info]: kb/s:3000.33

General
Unique ID : 185673988512222419962418567667765113695 (0x8BAF826A75BFF708A4E7B2D48342735F)
Complete name : Сыновья уходят в бой.1969.mkv
Format : Matroska
Format version : Version 2
File size : 2.09 GiB
Duration : 1 h 33 min
Overall bit rate : 3 194 kb/s
Encoded date : UTC 2019-11-05 20:12:42
Writing application : mkvmerge v7.8.0 ('River Man') 32bit built on Mar 27 2015 16:18:02
Writing library : libebml v1.3.1 + libmatroska v1.4.2
Video
ID : 1
Format : AVC
Format/Info : Advanced Video Codec
Format profile : High@L4.1
Format settings : CABAC / 13 Ref Frames
Format settings, CABAC : Yes
Format settings, ReFrames : 13 frames
Codec ID : V_MPEG4/ISO/AVC
Duration : 1 h 33 min
Bit rate : 3 000 kb/s
Width : 936 pixels
Height : 648 pixels
Display aspect ratio : 1.444
Frame rate mode : Constant
Frame rate : 25.000 FPS
Color space : YUV
Chroma subsampling : 4:2:0
Bit depth : 8 bits
Scan type : Progressive
Bits/(Pixel*Frame) : 0.198
Stream size : 1.93 GiB (92%)
Title : Сыновья уходят в бой.1969
Writing library : x264 core 157 r2867+103 0d6443f t_mod_Custom_2 [8-bit@all X86]
Encoding settings : cabac=1 / ref=13 / deblock=1:-2:-2 / analyse=0x3:0x133 / me=umh / subme=10 / psy=1 / fade_compensate=0.00 / psy_rd=1.00:0.00 / mixed_ref=1 / me_range=32 / chroma_me=1 / trellis=2 / 8x8dct=1 / cqm=0 / deadzone=21,11 / fast_pskip=0 / chroma_qp_offset=-2 / threads=12 / lookahead_threads=2 / sliced_threads=0 / nr=0 / decimate=0 / interlaced=0 / bluray_compat=0 / constrained_intra=0 / fgo=0 / bframes=9 / b_pyramid=2 / b_adapt=2 / b_bias=0 / direct=3 / weightb=1 / open_gop=0 / weightp=2 / keyint=250 / keyint_min=25 / scenecut=40 / intra_refresh=0 / rc_lookahead=60 / rc=2pass / mbtree=0 / bitrate=3000 / ratetol=1.0 / qcomp=0.60 / qpmin=0:0:0 / qpmax=69:69:69 / qpstep=4 / cplxblur=20.0 / qblur=0.5 / vbv_maxrate=62500 / vbv_bufsize=78125 / nal_hrd=none / filler=0 / ip_ratio=1.30 / pb_ratio=1.30 / aq=3:0.90 / aq-sensitivity=10.00 / aq-factor=1.00:1.00:1.00 / aq2=0 / aq3=0
Language : Russian
Default : Yes
Forced : No
Color range : Limited
Color primaries : BT.709
Transfer characteristics : BT.709
Matrix coefficients : BT.709
Audio
ID : 2
Format : AC-3
Format/Info : Audio Coding 3
Codec ID : A_AC3
Duration : 1 h 33 min
Bit rate mode : Constant
Bit rate : 192 kb/s
Channel(s) : 2 channels
Channel positions : Front: L R
Sampling rate : 48.0 kHz
Frame rate : 31.250 FPS (1536 SPF)
Bit depth : 16 bits
Compression mode : Lossy
Stream size : 129 MiB (6%)
Title : AC-3; 16 bits 48 Khz; 2.0ch 192 Kbps; CBR
Language : Russian
Service kind : Complete Main
Default : Yes
Forced : No
Не забывайте говорить Спасибо. Не уходите с раздачи!   
Торрент: Зарегистрирован [07 ноя 2019, 14:08]
Статус:
Проверен
 
.torrent скачан: 5 раз
Хэш: 53c8a58c08a1110d4234492ba0f462e77e747a56
Размер: 2.09 ГБ (2 248 320 939 байт)
   Стать Автором раздачи
   
Ничто так не успокаивает, как инструктаж по технике безопасности.
Цитата

Вернуться в Кино СССР (Rips)

Кто сейчас на конференции

Сейчас эту тему просматривают: нет зарегистрированных пользователей и гости: 1