Лига чемпионов 2019-2020 / Групповой турнир / Группа B / 4-й тур / Црвена Звезда (Сербия) - Тоттенхэм (Англия) / Матч! Футбол 3 HD [06.11.2019, Футбол, HDTV/1080i, TS/H.264, RU]

 Статистика раздачи 
Размер: 7.48 ГБ   |  Зарегистрирован: 07 ноя 2019, 14:25   |   .torrent скачан: 0 раз
Сидеров: 17  [ 0 байт/сек ]     Личеров: 5  [ 0 байт/сек ]  
  
Аватара пользователя
 
Раздал: 6.64 ТБ
Скачал: 597.93 ГБ
Ратио: 11.363
Сообщения: 246793
Стаж: 2 года 7 месяцев 25 дней

Лига чемпионов 2019-2020 / Групповой турнир / Группа B / 4-й тур / Црвена Звезда (Сербия) - Тоттенхэм (Англия)

Год Выпуска: 2019
Вид Спорта: Футбол

Продолжительность: o 01:52:42 o

Комментарий: Артём Шмельков
Язык Комментария: Русский

Описание: 06 ноября 2019, среда. 23:00 МСК
Группа B. 4-й тур
Стадион: Райко Митич - Црвена Звезда (Белград, Сербия), 42 381 зритель (77 % при вместимости 55 000)
Главный судья: Карлос Дель Серро Гранде (Мадрид, Испания); Ассистент: Хуан Юсте Хименес (Алькоркон, Испания); Ассистент: Роберто Алонсо Фернандес (Испания); Резервный: Хосе Мунуэра Монтера (Испания)


Качество: HDTV
Формат: TS
Видео Кодек: AVC
Аудио Кодек: MPEG Audio
Видео: 1920x1080 (16/9), 25,000fps, ~8 841 kb/s
[*]Аудио: 192 Kbps, 48 KHz, 2 channels
0-4
Код: Выделить всё
[center]Тоттенхэм: Гассанига - Роуз, Дайер, Санчес, Фойт - Сон Хын Мин, Алли, Ло Чельсо, Ндомбеле, Сиссоко - Кейн.
Запасные: Сессеньон, Алдервейрелд, Эриксен, Скипп, Дэвис, Ворм, Лукас Моура.
[/center]Црвена Звезда: Борян - Родич, Дегенек, Милунович, Гобелич - ван Ла Парра, Марин, Гарсия, Йованчич, Петрович - Павков.
В запасе остались: Вулич, Каньяс, Симич, Попович, Жандер, Панков, Боачи.
Код: Выделить всё
General
ID                          : 1 (0x1)
Complete name               : E:\Мои релизы\Лига чемпионов 2019-2020  Групповой турнир  Группа B  4-й тур  Црвена Звезда (Сербия) - Тоттенхэм (Англия)  Матч! Футбол 3 HD.ts
Format                      : MPEG-TS
File size                   : 7.48 GiB
Duration                    : 1 h 52 min
Overall bit rate mode       : Variable
Overall bit rate            : 9 505 kb/s
Video
ID                          : 202 (0xCA)
Menu ID                     : 1402 (0x57A)
Format                      : AVC
Format/Info                 : Advanced Video Codec
Format profile              : High@L4
Format settings             : CABAC / 4 Ref Frames
Format settings, CABAC      : Yes
Format settings, Reference  : 4 frames
Codec ID                    : 27
Duration                    : 1 h 52 min
Bit rate                    : 8 841 kb/s
Width                       : 1 920 pixels
Height                      : 1 080 pixels
Display aspect ratio        : 16:9
Frame rate                  : 25.000 FPS
Standard                    : Component
Color space                 : YUV
Chroma subsampling          : 4:2:0
Bit depth                   : 8 bits
Scan type                   : Interlaced
Scan type, store method     : Separated fields
Scan order                  : Top Field First
Bits/(Pixel*Frame)          : 0.171
Stream size                 : 6.96 GiB (93%)
Color range                 : Limited
Color primaries             : BT.709
Transfer characteristics    : BT.709
Matrix coefficients         : BT.709
Audio
ID                          : 302 (0x12E)
Menu ID                     : 1402 (0x57A)
Format                      : MPEG Audio
Format version              : Version 1
Format profile              : Layer 2
Codec ID                    : 3
Duration                    : 1 h 52 min
Bit rate mode               : Constant
Bit rate                    : 192 kb/s
Channel(s)                  : 2 channels
Sampling rate               : 48.0 kHz
Frame rate                  : 41.667 FPS (1152 SPF)
Compression mode            : Lossy
Stream size                 : 155 MiB (2%)
Language                    : Russian




Не забывайте говорить Спасибо. Не уходите с раздачи!   
Торрент: Зарегистрирован [07 ноя 2019, 14:25]
Статус:
Проверен
 
.torrent скачан: 0 раз
Хэш: e01db79259b1942e6c87551f1629704fcf71b71b
Размер: 7.48 ГБ (8 034 703 580 байт)
   Стать Автором раздачи
   
Цитата
  • Похожие торренты
    Ответы
    Просмотры
    Последнее сообщение

Вернуться в Еврокубки 2019-2020

Кто сейчас на конференции

Сейчас эту тему просматривают: нет зарегистрированных пользователей и гости: 1