Ибица / Ibiza (2019) WEB-DLRip | iTunes

 Статистика раздачи 
Размер: 1.46 ГБ   |  Зарегистрирован: 07 ноя 2019, 12:08   |   .torrent скачан: 25429 раз
Сидеров: 3861  [ 0 байт/сек ]     Личеров: 604  [ 0 байт/сек ]  
  
Аватара пользователя
Я на сайте
 
Раздал: 6.64 ТБ
Скачал: 597.93 ГБ
Ратио: 11.363
Сообщения: 247108
Стаж: 2 года 7 месяцев 27 дней
СообщениеДобавлено: 07 ноя 2019, 12:08


Информация о фильме
Название: Ибица
Оригинальное название: Ibiza
Год выхода: 2019
Жанр: Комедия
Режиссер: Арно Лемор
В ролях: Кристиан Клавье, Матильда Сенье, Леопольд Бухсбаум, Пили Груан, Джои Старр, Оливье Маршаль, Фредерик Бель, Луи-До де Ланкесэ, Lola Aubrière, Marie de Dinechin

О фильме:
Консервативный доктор-ортопед Филипп пытается расположить к себе двух детей-подростков своей новой возлюбленной. Он решает провести вместе с ними семейный отпуск у моря, и молодежь выбирает Ибицу, где любителю тихого отдыха придется непросто.



Страна: Франция, Бельгия / Atelier de Production, Gaumont, France 2 Cinéma
Продолжительность: 01:26:03
Перевод: Дублированный (iTunes)

Файл
Формат: AVI
Качество: WEB-DLRip
Видео: 720x304 (2.37:1), 24.000 fps, XviD build 73 ~2030 kbps avg, 0.39 bit/pixel
Аудио: 48 kHz, AC3 Dolby Digital, 3/2 (L,C,R,l,r) + LFE ch, ~384 kbps
Субтитры: Нет



Формат : AVI
Формат/Информация : Audio Video Interleave
Размер файла : 1,46 Гбайт
Продолжительность : 1 ч. 26 м.
Общий поток : 2424 Кбит/сек
Название фильма : Ибица_2019_WEB-DLRip
Программа кодирования : VirtualDubMod 1.5.10.3 | www.virtualdub-fr.org || (build 2550/release)
Авторское право : порошков

Видео
Идентификатор : 0
Формат : MPEG-4 Visual
Профиль формата : Advanced Simple@L5
Настройки формата : BVOP1 / Custom Matrix
Параметр BVOP формата : 1
Параметр QPel формата : Нет
Параметр GMC формата : Без точки перехода
Параметр матрицы формата : Выборочная
Идентификатор кодека : XVID
Идентификатор кодека/Подсказка : XviD
Продолжительность : 1 ч. 26 м.
Битрейт : 2031 Кбит/сек
Ширина : 720 пикселей
Высота : 304 пикселя
Соотношение сторон : 2,35:1
Частота кадров : 24,000 кадра/сек
Цветовое пространство : YUV
Субдискретизация насыщенности : 4:2:0
Битовая глубина : 8 бит
Тип развёртки : Прогрессивная
Метод сжатия : С потерями
Бит/(Пиксели*Кадры) : 0.387
Размер потока : 1,22 Гбайт (84%)
Библиотека кодирования : XviD 73

Аудио
Идентификатор : 1
Формат : AC-3
Формат/Информация : Audio Coding 3
Коммерческое название : Dolby Digital
Идентификатор кодека : 2000
Продолжительность : 1 ч. 26 м.
Вид битрейта : Постоянный
Битрейт : 384 Кбит/сек
Каналы : 6 каналов
ChannelLayout : L R C LFE Ls Rs
Частота : 48,0 КГц
Частота кадров : 31,250 кадров/сек (1536 SPF)
Метод сжатия : С потерями
Размер потока : 236 Мбайт (16%)
Выравнивание : Разделение по промежуткам
Продолжительность промежутка : 42 мс. (1,00 видеокадр)
Время предзагрузки промежутка : 500 мс.
ServiceKind : Complete Main
Не забывайте говорить Спасибо. Не уходите с раздачи!   
Торрент: Зарегистрирован [07 ноя 2019, 12:08]
Статус:
Проверен
 
.torrent скачан: 25429 раз
Хэш: 6f36fff9e96b90e4afb511176c2f5bf2d11fc8ad
Размер: 1.46 ГБ (1 564 545 024 байт)
   Стать Автором раздачи
   
Цитата
  • Похожие торренты
    Ответы
    Просмотры
    Последнее сообщение

Вернуться в Зарубежное кино (HDRip, DVDRip)

Кто сейчас на конференции

Сейчас эту тему просматривают: нет зарегистрированных пользователей и гости: 1