Призрачный патруль / Deadtectives (2018) WEB-DLRip-AVC от ExKinoRay | iTunes

 Статистика раздачи 
Размер: 740.24 МБ   |  Зарегистрирован: 07 ноя 2019, 14:00   |   .torrent скачан: 456 раз
Сидеров: 157  [ 0 байт/сек ]     Личеров: 29  [ 0 байт/сек ]  
  
Аватара пользователя
 
Раздал: 6.64 ТБ
Скачал: 597.93 ГБ
Ратио: 11.363
Сообщения: 246793
Стаж: 2 года 7 месяцев 25 дней

Информация о фильме
Название: Призрачный патруль
Оригинальное название: Deadtectives
Год выпуска: 2018
Жанр: Ужасы, комедия
Режиссер: Тони Уэст
В ролях: Марта Игареда, Крис Гир, Тина Ивлев, Дэвид Ньюман (IV), Хосе Мария де Тавира, Нурия Бланко, Эмилио Савинни, Марк Рили, Крис Рис, Сеселия Антониетта, Мария Каргутие, Пабло Гиса Кёстингер, Валентина Зертуче, Матиас дель Кастильо

О фильме:
Команда неудачливых исследователей паранормальных явлений, участвующих в съемках реалити-сериала, в погоне за лучшими рейтингами решила посетить известный дом с привидениями в Мексике. Однако, когда начинают проявляться истинные темные тайны особняка, незадачливые участники быстро обнаруживают, что этот дом не является мистификацией. С нулевыми навыками охоты на призраков команда должна придумать как убежать из этого дома, спасая свои жизни.



Страна: США
Студия: Bad Idea, BondIt Media Capital, Dark Factory Entertainment
Продолжительность: 01:32:03
Перевод: Профессиональный (многоголосый, закадровый) | iTunes

Файл
Формат: MKV
Качество: WEB-DLRip-AVC
Видео: MPEG-4 AVC, 768x320, - 1056 Кбит/с
Аудио: AAC-HE, 2 ch, - 76 Кбит/с
Субтитры: Нет
Общее
Уникальный идентификатор : 46724719277025082745865138778325819014 (0x2326DA858569DE4BEA2FF8838DCA9E86)
Полное имя : D:MOVIESDeadtectives.2018.WEB-DLRip-AVC.ExKinoRay.mkv
Формат : Matroska
Версия формата : Version 4 / Version 2
Размер файла : 740 Мбайт
Продолжительность : 1 ч. 32 м.
Общий поток : 1124 Кбит/сек
Дата кодирования : UTC 2019-11-07 10:40:31
Программа кодирования : mkvmerge v35.0.0 ('All The Love In The World') 64-bit
Библиотека кодирования : libebml v1.3.9 + libmatroska v1.5.2

Видео
Идентификатор : 1
Формат : AVC
Формат/Информация : Advanced Video Codec
Профиль формата : High@L4.1
Параметр CABAC формата : Да
Параметр RefFrames формата : 12 кадров
Идентификатор кодека : V_MPEG4/ISO/AVC
Продолжительность : 1 ч. 32 м.
Битрейт : 1056 Кбит/сек
Ширина : 768 пикселей
Высота : 320 пикселей
Соотношение сторон : 2,40:1
Режим частоты кадров : Постоянный
Частота кадров : 23,976 (24000/1001) кадра/сек
Цветовое пространство : YUV
Субдискретизация насыщенности : 4:2:0
Битовая глубина : 8 бит
Тип развёртки : Прогрессивная
Бит/(Пиксели*Кадры) : 0.179
Размер потока : 689 Мбайт (93%)
Библиотека кодирования : x264 core 152 r2851kMod ba24899
Настройки программы : cabac=1 / ref=12 / deblock=1:-3:-2 / analyse=0x3:0x133 / me=umh / subme=10 / psy=1 / fade_compensate=0.00 / psy_rd=1.00:0.13 / mixed_ref=1 / me_range=32 / chroma_me=1 / trellis=2 / 8x8dct=1 / cqm=0 / deadzone=21,11 / fast_pskip=0 / chroma_qp_offset=-3 / threads=6 / lookahead_threads=1 / sliced_threads=0 / nr=0 / decimate=0 / interlaced=0 / bluray_compat=0 / constrained_intra=0 / bframes=12 / b_pyramid=2 / b_adapt=2 / b_bias=0 / direct=3 / weightb=1 / open_gop=0 / weightp=2 / keyint=240 / keyint_min=23 / scenecut=40 / intra_refresh=0 / rc_lookahead=40 / rc=2pass / mbtree=1 / bitrate=1056 / ratetol=1.0 / qcomp=0.60 / qpmin=0 / qpmax=69 / qpstep=4 / cplxblur=20.0 / qblur=0.5 / ip_ratio=1.40 / aq=3:1.00
Default : Да
Forced : Нет

Аудио
Идентификатор : 2
Формат : AAC
Формат/Информация : Advanced Audio Codec
Профиль формата : HE-AAC / LC
Идентификатор кодека : A_AAC
Продолжительность : 1 ч. 31 м.
Битрейт : 76,0 Кбит/сек
Каналы : 2 канала
Расположение каналов : Front: L R
Частота : 48,0 КГц / 24,0 КГц
Частота кадров : 23,438 кадра/сек (1024 SPF)
Метод сжатия : С потерями
Задержка видео : 31 мс.
Размер потока : 50,0 Мбайт (7%)
Язык : Russian
Default : Да
Forced : Нет


Не забывайте говорить Спасибо. Не уходите с раздачи!   
Торрент: Зарегистрирован [07 ноя 2019, 14:00]
Статус:
Проверен
 
.torrent скачан: 456 раз
Хэш: d003db78128fb000868a1d61abaad549fc62e46e
Размер: 740.24 МБ (776 200 390 байт)
   Стать Автором раздачи
   
Цитата

Вернуться в Зарубежное кино (HDRip, DVDRip)

Кто сейчас на конференции

Сейчас эту тему просматривают: нет зарегистрированных пользователей и гости: 1