Ловушка для родителей / The Parent Trap (1998) HDRip-AVC | P

 Статистика раздачи 
Размер: 744.57 МБ   |  Зарегистрирован: 07 ноя 2019, 15:07   |   .torrent скачан: 104 раз
Сидеров: 21  [ 0 байт/сек ]     Личеров: 0  [ 0 байт/сек ]  
  
Аватара пользователя
 
Раздал: 6.64 ТБ
Скачал: 597.93 ГБ
Ратио: 11.363
Сообщения: 246793
Стаж: 2 года 7 месяцев 25 дней

Информация о фильме
Название: Ловушка для родителейОригинальное название: The Parent Trap
Год выхода: 1998
Жанр: драма, мелодрама, комедия, приключения, семейный
Режиссер: Нэнси Майерс
В ролях: Линдси Лохан, Деннис Куэйд, Наташа Ричардсон, Элэйн Хендрикс, Лиза Энн Уолтер, Саймон Кунц, Полли Холлидей, Мэгги Уилер, Ронни Стивенс, Джоэнна Барнс

О фильме:
Юная Холли Паркер живёт в солнечной Калифорнии с самым замечательным отцом на свете, а её ровесница Энни Джеймс — в туманном Лондоне с прекрасной любящей матерью. Первая мечтает о маме, без которой ей очень тяжело, а второй так хочется, чтобы у неё был папа.
Когда девочки случайно встречаются в летнем лагере, им есть, чем поделиться друг с другом. Но помимо общих горестей между Холли и Энни существует ещё одно сходство: они… близнецы! Их родители развелись много лет назад, и девочки решают исправить эту трагическую ошибку. Сестрички начинают действовать: американка возвращается в Лондон, а англичанка в Америку. И ничего не подозревающие родители легко попадают в ловушку…



Страна: США
Студия: Cinema Vehicle Services, The Meyers/Shyer Company, Walt Disney Pictures
Продолжительность: 02:08:07
Перевод: Профессиональный (многоголосый, закадровый) | СТС
Субтитры: Русские (full), Английские (full)

Файл
Формат: MKV
Качество: HDRip-AVC (исх. BDRip 720p by msltel)
Видео: AVC, 712x386 at 23.976 fps, ~747 kbps, 0.113 bpp
Аудио: AAC, 2 ch, ~64 kbps
Формат субтитров: softsub (SRT)

***Релиз от: -=DoMiNo=-

General
Format : Matroska
Format version : Version 4
File size : 745 MiB
Duration : 2 h 8 min
Overall bit rate : 813 kb/s
Movie name : Ловушка для родителей.(1998).HDRip-AVC.[-=DoMiNo=-]
Encoded date : UTC 2019-11-07 12:01:57
Writing application : mkvmerge v39.0.0 ('In The Waiting Line') 64-bit
Writing library : libebml v1.3.9 + libmatroska v1.5.2
Attachments : poster / poster
Language : und

Video
ID : 1
Format : AVC
Format/Info : Advanced Video Codec
Format profile : High@L4.1
Format settings : CABAC / 12 Ref Frames
Format settings, CABAC : Yes
Format settings, Reference : 12 frames
Codec ID : V_MPEG4/ISO/AVC
Duration : 2 h 8 min
Bit rate : 747 kb/s
Width : 712 pixels
Height : 386 pixels
Display aspect ratio : 1.85:1
Frame rate mode : Constant
Frame rate : 23.976 (24000/1001) FPS
Color space : YUV
Chroma subsampling : 4:2:0
Bit depth : 8 bits
Scan type : Progressive
Bits/(Pixel*Frame) : 0.113
Stream size : 684 MiB (92%)
Title : RIP_BY_-=DoMiNo=-
Writing library : x264 core 157 r2958 57baac4
Encoding settings : cabac=1 / ref=12 / deblock=1:-3:-3 / analyse=0x3:0x133 / me=umh / subme=11 / psy=1 / psy_rd=1.00:0.00 / mixed_ref=1 / me_range=32 / chroma_me=1 / trellis=2 / 8x8dct=1 / cqm=0 / deadzone=21,11 / fast_pskip=0 / chroma_qp_offset=-2 / threads=6 / lookahead_threads=1 / sliced_threads=0 / nr=0 / decimate=0 / interlaced=0 / bluray_compat=0 / constrained_intra=0 / bframes=12 / b_pyramid=2 / b_adapt=2 / b_bias=0 / direct=3 / weightb=1 / open_gop=0 / weightp=2 / keyint=240 / keyint_min=24 / scenecut=40 / intra_refresh=0 / rc_lookahead=60 / rc=2pass / mbtree=1 / bitrate=747 / ratetol=1.0 / qcomp=0.65 / qpmin=0 / qpmax=69 / qpstep=4 / cplxblur=20.0 / qblur=0.5 / vbv_maxrate=50000 / vbv_bufsize=62500 / nal_hrd=none / filler=0 / ip_ratio=1.40 / aq=1:1.00
Language : English
Default : Yes
Forced : No

Audio
ID : 2
Format : AAC LC SBR
Format/Info : Advanced Audio Codec Low Complexity with Spectral Band Replication
Commercial name : HE-AAC
Format settings : Implicit
Codec ID : A_AAC-2
Duration : 2 h 8 min
Bit rate : 64.0 kb/s
Channel(s) : 2 channels
Channel layout : L R
Sampling rate : 48.0 kHz
Frame rate : 23.438 FPS (2048 SPF)
Compression mode : Lossy
Stream size : 58.6 MiB (8%)
Title : MVO CTC
Language : Russian
Default : Yes
Forced : No

Text #1
ID : 3
Format : UTF-8
Codec ID : S_TEXT/UTF8
Codec ID/Info : UTF-8 Plain Text
Duration : 1 h 59 min
Bit rate : 111 b/s
Count of elements : 1613
Stream size : 97.5 KiB (0%)
Title : русские
Language : Russian
Default : No
Forced : No

Text #2
ID : 4
Format : UTF-8
Codec ID : S_TEXT/UTF8
Codec ID/Info : UTF-8 Plain Text
Duration : 2 h 1 min
Bit rate : 70 b/s
Count of elements : 1505
Stream size : 63.2 KiB (0%)
Title : английские
Language : English
Default : No
Forced : No

Menu
00:00:00.000 : :Глава 01
00:02:00.000 : :Глава 02
00:04:00.000 : :Глава 03
00:06:00.000 : :Глава 04
00:08:00.000 : :Глава 05
00:10:00.000 : :Глава 06
00:12:00.000 : :Глава 07
00:14:00.000 : :Глава 08
00:16:00.000 : :Глава 09
00:18:00.000 : :Глава 10
00:20:00.000 : :Глава 11
00:22:00.000 : :Глава 12
00:24:00.000 : :Глава 13
00:26:00.000 : :Глава 14
00:28:00.000 : :Глава 15
00:30:00.000 : :Глава 16
00:32:00.000 : :Глава 17
00:34:00.000 : :Глава 18
00:36:00.000 : :Глава 19
00:38:00.000 : :Глава 20
00:40:00.000 : :Глава 21
00:42:00.000 : :Глава 22
00:44:00.000 : :Глава 23
00:46:00.000 : :Глава 24
00:48:00.000 : :Глава 25
00:50:00.000 : :Глава 26
00:52:00.000 : :Глава 27
00:54:00.000 : :Глава 28
00:56:00.000 : :Глава 29
00:58:00.000 : :Глава 30
01:00:00.000 : :Глава 31
01:02:00.000 : :Глава 32
01:04:00.000 : :Глава 33
01:06:00.000 : :Глава 34
01:08:00.000 : :Глава 35
01:10:00.000 : :Глава 36
01:12:00.000 : :Глава 37
01:14:00.000 : :Глава 38
01:16:00.000 : :Глава 39
01:18:00.000 : :Глава 40
01:20:00.000 : :Глава 41
01:22:00.000 : :Глава 42
01:24:00.000 : :Глава 43
01:26:00.000 : :Глава 44
01:28:00.000 : :Глава 45
01:30:00.000 : :Глава 46
01:32:00.000 : :Глава 47
01:34:00.000 : :Глава 48
01:36:00.000 : :Глава 49
01:38:00.000 : :Глава 50
01:40:00.000 : :Глава 51
01:42:00.000 : :Глава 52
01:44:00.000 : :Глава 53
01:46:00.000 : :Глава 54
01:48:00.000 : :Глава 55
01:50:00.000 : :Глава 56
01:52:00.000 : :Глава 57
01:54:00.000 : :Глава 58
01:56:00.000 : :Глава 59
01:58:00.000 : :Глава 60
02:00:00.000 : :Глава 61
02:02:00.000 : :Глава 62
02:04:00.000 : :Глава 63
02:06:00.000 : :Глава 64
02:08:00.000 : :Глава 65
Не забывайте говорить Спасибо. Не уходите с раздачи!   
Торрент: Зарегистрирован [07 ноя 2019, 15:07]
Статус:
Проверен
 
.torrent скачан: 104 раз
Хэш: cae53cda9f5e6f627729228e7511a02a1d78fda2
Размер: 744.57 МБ (780 735 723 байт)
   Стать Автором раздачи
   
Цитата

Вернуться в Зарубежное кино (HDRip, DVDRip)

Кто сейчас на конференции

Сейчас эту тему просматривают: нет зарегистрированных пользователей и гости: 1