(Jazz/Easy Listening/Country Rock) [LP] [24/192] Chet Atkins (3LP) - 1959-1990, FLAC (image+.cue)

 Статистика раздачи 
Размер: 3.9 ГБ   |  Зарегистрирован: 06 апр 2013, 06:33   |   .torrent скачан: 0 раз
Сидеров: 0  [ 0 байт/сек ]     Личеров: 0  [ 0 байт/сек ]  
  
Аватара пользователя
Главный редактор
Главный редактор
 
Раздал: 90.01 ТБ
Скачал: 3.78 ТБ
Ратио: 24.248
Сообщения: 274106
Стаж: 9 лет 1 месяц 17 дней
Откуда: Санкт-Петербург

Chet Atkins
Жанр: Jazz, Easy Listening
Год выпуска: 1959-1990
Страна-производитель: US, England, Europe
Аудио кодек: FLAC
Тип рипа: image+.cue
Формат записи: 24/192
Формат раздачи: 24/192
Chet Atkins – Chet Atkins In Hollywood
Жанр: Jazz, Easy Listening
Год выпуска: (1959) 1997
Лейбл: RCA Victor – LPM-1993/Classic Records
Страна-производитель: US
Аудио кодек: FLAC
Тип рипа: image+.cue
Формат записи: 24/192
Формат раздачи: 24/192
Продолжительность: 00:34:59
Треклист:
А1 Armen's Theme (Bagdasarian)
А2 Let It Be Me (Becaud, Curtis)
АЗ Theme From "Picnic" (Duning)
А4 Theme From A Dream (Bryant)
А5 Estrelita (Ponce)
А6 Jitterbug Waltz (Waller)
В1 Little Old Lady (Carmichael, Adams)
В2 Limelight (Chaplin, Parsons)
ВЗ The Three Bells (Reisfeld, Gilles)
В4 Santa Lucia (Don Titman)
В5 Greensleeves (Traditional)
В6 Meet Mr. Callaghan (Spear)
Arranged By – A. Fassio (tracks: B4), Dennis Farnon (tracks: B5)
Orchestrated By – Dennis Farnon
Producer – Chet Atkins
Recorded In Hollywood October 23, 1958
180 Gram Vinyl Record. Mastered by Bernie Grundman using Classic Records' all-tube cutting system. Transferred from the original 15 ips, 2-track 1/4-inch master tapes.
Источник оцифровки: оцифровано Crimson74
Код класса состояния винила: NM
Устройство воспроизведения: Technics SP-10 MK2
Головка звукоснимателя: Audio Technica ML180
Предварительный усилитель: Kora 3T SE MM
АЦП: Edirol R-44
Обработка: удалены щелчки в паузах
foobar2000 1.1.8 / Dynamic Range Meter 1.1.1
log date: 2013-04-01 23:17:43
foobar2000 1.1.8 / Dynamic Range Meter 1.1.1
log date: 2013-04-06 10:35:21
--------------------------------------------------------------------------------
Analyzed: Chet Atkins / Chet Atkins In Hollywood
--------------------------------------------------------------------------------
DR Peak RMS Duration Track
--------------------------------------------------------------------------------
DR13 -4.24 dB -19.75 dB 2:06 01-Armen's Theme
DR12 -2.91 dB -19.67 dB 3:16 02-Let It Be Me
DR11 -3.36 dB -18.55 dB 3:23 03-Theme From 'Picnic'
DR10 -4.30 dB -18.00 dB 3:59 04-Theme From A Dream
DR11 -5.82 dB -20.87 dB 2:51 05-Estrellita
DR11 -4.14 dB -19.52 dB 3:03 06-Jitterbug Waltz
DR12 -2.91 dB -18.34 dB 2:16 07-Little Old Lady
DR11 -6.46 dB -22.01 dB 3:08 08-Limelight
DR12 -4.77 dB -20.57 dB 3:00 09-The Three Bells
DR12 -4.82 dB -19.57 dB 2:46 10-Santa Lucia
DR11 -6.55 dB -21.16 dB 2:42 11-Greensleeves
DR12 -3.33 dB -19.30 dB 2:28 12-Meet Mr. Callaghan
--------------------------------------------------------------------------------
Number of tracks: 12
Official DR value: DR11
Samplerate: 192000 Hz
Channels: 2
Bits per sample: 24
Bitrate: 5048 kbps
Codec: FLAC
================================================================================
Chet Atkins – Picks On The Beatles(1966) - 1977 (RCA's Re-issue)
#77Жанр: Jazz, Country Rock, Easy Listening
Год выпуска: 1977 (1966)
Лейбл: RCA – NL 12002/Re-issue
Страна-производитель: England
Аудио кодек: FLAC
Тип рипа: image+.cue
Формат записи: 24/192
Формат раздачи: 24/192
Продолжительность: 00:30:33
Треклист:
A1 I Feel Fine
A2 Yesterday
A3 If I Fell
A4 Can't Buy Me Love
A5 I'll Cry Instead
A6 Things We Said Today
B1 A Hard Day's Night
B2 I'll Follow The Sun
B3 She's A Woman
B4 And I Love Her
B5 Michelle
B6 She Loves You
All songs by John Lennon and Paul McCartney
Harmonica - Charlie McCoy
Guitar - Chet Atkins
Producer – Bob Ferguson, Chet Atkins
I have appreciated Cher Atkins as I A a musician since long before the tracks on this album were written; in fact, since I was the ripe young age of seventeen. Since then I have lost count of the number of Chet's albums I have | acquired, but I have not been disappointed with any of them.
For me. the great thing about Mr. Atkins is not the fact that he Is capable of playing almost every type of music but the conviction in the way he does it. Whilst listening to CHET ATKINS PICKS ON THE BEATLES I got the feeling that these songs had been written specifically with Chet in mind. The fact that they were not proves his eminence as an artist—the perfect example being Yesterday. Chet, by himself, gets far more out of this than some of the people known as 'class' singers do with a full orchestral arrangement to boot!
I'll Cry Instead, She's a Woman and Can't Buy Me and Can't Buy Me Love, having a country feeling about them, lend themselves perfectly to Chets own style of picking, which has inspired so many guitarists throughout the world (myself included, but I didn't have enough fingers at the time).
All the other tracks have Chet adding harmonies and harmonics in the least expected places, bringing out that crystal clear sound of the guitar to his audience's benefit.
One thing remains very clear to me at the end of this LP and that is why this sleeve note must end here. Chet Atkins did not get to be a great guitarist by writing sleeve notes, but by years of devoted practice on the instrument he so obviously loves.
George Harrison
Источник оцифровки: оцифровано Crimson74
Код класса состояния винила: NM
Устройство воспроизведения: Technics SP-10 MK2
Головка звукоснимателя: Audio Technica ML180
Предварительный усилитель: Kora 3T SE MM
АЦП: Edirol R-44
Обработка: удалены щелчки в паузах
foobar2000 1.1.8 / Dynamic Range Meter 1.1.1
log date: 2013-04-01 23:17:43
foobar2000 1.1.8 / Dynamic Range Meter 1.1.1
log date: 2013-04-06 10:35:21
--------------------------------------------------------------------------------
Analyzed: Chet Atkins / Chet Atkins In Hollywood
--------------------------------------------------------------------------------
DR Peak RMS Duration Track
--------------------------------------------------------------------------------
DR13 -4.24 dB -19.75 dB 2:06 01-Armen's Theme
DR12 -2.91 dB -19.67 dB 3:16 02-Let It Be Me
DR11 -3.36 dB -18.55 dB 3:23 03-Theme From 'Picnic'
DR10 -4.30 dB -18.00 dB 3:59 04-Theme From A Dream
DR11 -5.82 dB -20.87 dB 2:51 05-Estrellita
DR11 -4.14 dB -19.52 dB 3:03 06-Jitterbug Waltz
DR12 -2.91 dB -18.34 dB 2:16 07-Little Old Lady
DR11 -6.46 dB -22.01 dB 3:08 08-Limelight
DR12 -4.77 dB -20.57 dB 3:00 09-The Three Bells
DR12 -4.82 dB -19.57 dB 2:46 10-Santa Lucia
DR11 -6.55 dB -21.16 dB 2:42 11-Greensleeves
DR12 -3.33 dB -19.30 dB 2:28 12-Meet Mr. Callaghan
--------------------------------------------------------------------------------
foobar2000 1.1.8 / Dynamic Range Meter 1.1.1
log date: 2013-04-09 06:41:04
--------------------------------------------------------------------------------
Analyzed: Chet Atkins / Picks On The Beatles
--------------------------------------------------------------------------------
DR Peak RMS Duration Track
--------------------------------------------------------------------------------
DR11 -5.25 dB -19.89 dB 1:59 01-I Feel Fine
DR11 -7.06 dB -22.54 dB 3:12 02-Yesterday
DR11 -6.40 dB -20.50 dB 2:15 03-If I Fell
DR11 -6.87 dB -20.77 dB 2:36 04-Can't Buy Me Love
DR11 -7.68 dB -20.95 dB 2:37 05-I'll Cry Instead
DR11 -7.74 dB -21.85 dB 2:37 06-Things We Said Today
DR11 -6.53 dB -20.20 dB 2:33 07-A Hard Day's Night
DR11 -7.59 dB -20.91 dB 2:09 08-I'll Follow The Sun
DR12 -5.84 dB -20.83 dB 2:43 09-She's A Woman
DR12 -6.04 dB -21.05 dB 2:25 10-And I Love Her
DR12 -6.40 dB -20.70 dB 2:48 11-Michelle
DR11 -7.14 dB -20.72 dB 2:39 12-She Loves You
--------------------------------------------------------------------------------
Number of tracks: 12
Official DR value: DR11
Samplerate: 192000 Hz
Channels: 2
Bits per sample: 24
Bitrate: 4985 kbps
Codec: FLAC
================================================================================
1977 re-issue, formerly available on LSP-3531
Chet Atkins And Mark KnopflerNeck And Neck
#77Жанр: Jazz, Blues, Country
Год выпуска: 1990
Лейбл: CBS – 467435 1
Страна-производитель: Europe
Аудио кодек: FLAC
Тип рипа: image+.cue
Формат записи: 24/192
Формат раздачи: 24/192
Продолжительность: 00:38:34
Треклист:
A1 Poor Boy Blues (Paul Kennerley)
A2 Sweet Dreams (Don Gibson)
A3 There'll Be Some Changes Made (Billy Higgins, W.Benton Overstreet)
A4 Just One Time (Don Gibson)
A5 So Soft, Your Goodbye (Randy Goodrum)
B1 Yakety Axe (Boots Randolph, James Rich)
B2 Tears (Django Reinhardt, Stephane Grapelli)
B3 Tahitian Skies (Ray Flacke)
B4 I'll See You In My Dreams (Gus Kahn, Isham Jones)
B5 The Next Time I'm In Town (Mark Knopfler)
Backing Vocals - Vince Gill
Bass - Edgar Meyer, Guy Fletcher, Steve Wanner
Drums - Guy Fletcher, Larrie Londin
Fiddle, Mandolin - Mark O'Connor
Keyboards - Guy Fletcher
Producer - Mark Knopfler
Steel Guitar, Guitar [Pedabro, Dobro] - Paul Franklin
Большое спасибо VH за оформление раздачи.
Источник оцифровки: оцифровано Crimson74
Код класса состояния винила: Good
Устройство воспроизведения: Technics SP-10 MK2
Головка звукоснимателя: Audio Technica ML180
Предварительный усилитель: Kora 3T SE MM
АЦП: Edirol R-44
Обработка: удалены некоторые клики в паузах
foobar2000 1.1.8 / Dynamic Range Meter 1.1.1
log date: 2013-12-16 09:04:03
--------------------------------------------------------------------------------
Analyzed: Chet Atkins And Mark Knopfler / Neck And Neck
--------------------------------------------------------------------------------
DR Peak RMS Duration Track
--------------------------------------------------------------------------------
DR14 -2.97 dB -19.49 dB 4:05 01-Poor Boy Blues (Paul Kennerley)
DR14 -8.00 dB -24.98 dB 3:26 02-Sweet Dreams (Don Gibson)
DR14 -6.13 dB -21.97 dB 6:27 03-You Know Who (Is Doing You Know What)
DR14 -4.67 dB -20.29 dB 4:12 04-Just One Time (Don Gibson)
DR12 -8.51 dB -24.64 dB 3:21 05-So Soft, Your Goodbye (Randy Goodrum)
DR13 -4.31 dB -18.80 dB 3:27 06-Yakety Axe (Boots Randolph, James Rich)
DR13 -7.00 dB -23.63 dB 3:53 07-Tears (Django Reinhardt, Stephane Grapelli)
DR12 -7.31 dB -22.58 dB 3:20 08-Tahitian Skies (Ray Flacke)
DR13 -3.57 dB -19.76 dB 2:59 09-I'll See You In My Dreams (Gus Kahn, Isham Jones)
DR13 -3.14 dB -18.08 dB 3:24 10-The Next Time I'm In Town (Mark Knopfler)
--------------------------------------------------------------------------------
Number of tracks: 10
Official DR value: DR13
Samplerate: 192000 Hz
Channels: 2
Bits per sample: 24
Bitrate: 5420 kbps
Codec: FLAC
================================================================================
В раздаче присутствует файл сэмплов.
Внимание! В файл сэмплов включены фрагменты треков A2 и A3, на которых присутствует фоновый сигнал с уровнем минус 90 диби в диапазоне частот 10-12 кГц. Этот сигнал изначально записан на винил и к тракту это не имеет никакого отношения. Перед скачиванием рекомендуется прослушать сэмпл и решить стоит качать остальное или нет :).

09.04.2013 Добавлен "Chet Atkins – Picks On The Beatles(1966) - 1977 (RCA's Re-issue)"
16.12.2013 Добавлен "Chet Atkins And Mark Knopfler - Neck And Neck - 1990"
Не забывайте говорить Спасибо. Не уходите с раздачи!   
Торрент: Зарегистрирован [06 апр 2013, 06:33]
Статус:
Проверен
 
.torrent скачан: 0 раз
Хэш: da202adb00b1c90e81db022a5a6d4b9d535f0e97
Размер: 3.9 ГБ (4 190 887 630 байт)
   Стать Автором раздачи
   
Цитата

Вернуться в Фольклор, народная и этническая музыка (оцифровки)

Кто сейчас на конференции

Сейчас эту тему просматривают: нет зарегистрированных пользователей и гости: 1