(Folk Rock, Surf) [LP/7"] [32/192] Дос-Мукасан - Коллекция (LP + EP) - 1973-1976 (2019), WavPack (image+.cue)

 Статистика раздачи 
Размер: 2.76 ГБ   |  Зарегистрирован: 26 сен 2019, 19:35   |   .torrent скачан: 0 раз
Сидеров: 0  [ 0 байт/сек ]     Личеров: 0  [ 0 байт/сек ]  
  
Аватара пользователя
Главный редактор
Главный редактор
 
Раздал: 90.01 ТБ
Скачал: 3.78 ТБ
Ратио: 24.248
Сообщения: 274187
Стаж: 9 лет 1 месяц 18 дней
Откуда: Санкт-Петербург

Дос-Мукасан - Коллекция (LP + EP)
Страна-производитель: Russia
Жанр: Folk Rock, Surf
Год выпуска: 1973-1976 (2019)
Аудио кодек: WavPack
Тип рипа: image+.cue
Формат записи: 32/192
Формат раздачи: 32/192
Наличие сканов : 600 dpi, JPG
Той Жиры (Свадебная песня)
Страна-производитель: Russia
Год выпуска: 2019
Производитель: Soviet Grail
Номер по каталогу: SG041
Продолжительность: 41:38Треклист:

A
Той Жиры (Свадебная песня)
B1 Кайдасын (Где ты?)
B2 Кудаша (Где-то)


Оцифровка выполнена: bruk67 (автором раздачи)
Класс состояния винила: Mint
Устройство воспроизведения: YAMAHA GT-2000 + Oyaide MJ-12 + Clamp 580 g
Звукосниматель: Dynavector XX2MKII + Oyaide HSR-AG
Предварительный усилитель: YAMAHA C-4
АЦП: M-Audio ProFire 610
Программа-оцифровщик: Sound Forge Pro 12 Suite
Обработка: Неcколько мелких щелчков



Код: Выделить всё
foobar2000 1.2.2 / Замер динамического диапазона (DR) 1.1.1
Дата отчёта:  2019-10-18 00:17:15
--------------------------------------------------------------------------------
Анализ:   Дос-Мукасан / Wedding Song (EP)
--------------------------------------------------------------------------------
DR         Пики         RMS           Продолжительность трека
--------------------------------------------------------------------------------
DR12      -1.23 дБ   -13.94 дБ      2:14 ?-Той Жиры (Свадебная песня)
DR10      -0.90 дБ   -12.91 дБ      2:26 ?-Кайдасын (Где ты?)
DR11      -1.63 дБ   -14.66 дБ      1:50 ?-Кудаша (Где-то)
--------------------------------------------------------------------------------
Количество треков: 3
Реальные значения DR: DR11
Частота:   192000 Гц
Каналов:   2
Разрядность:   32
Битрейт:   12288 кбит/с
Кодек:   PCM
================================================================================
[/spoiler]
Спасибо vitalaleks, за предоставленную пластинку для оцифровки!
[/spoiler]
Дос-Мукасан
#77Страна-производитель: Russia
Год выпуска: 2018
Производитель: Soviet Grail
Номер по каталогу: SG042
Продолжительность: 37:35Треклист:

A1
Бетпак Дала (Голодная степь)
A2 Ахау Бикем (Прекрасная девушка)
A3 Аяулым (Моя нежная)
A4 Ляйлым шырак (Дорогая Ляйлым)
B1 Туган Жер (Родная земля)
B2 16 Кыз (16 девушек)
B3 Куа Бол (Будь свидетелем моей любви)
B4 Сулу Кыз (Красивая девушка)
B5 Куанышым Меным (Радость моя)


Оцифровка выполнена: bruk67 (автором раздачи)
Класс состояния винила: Mint
Устройство воспроизведения: YAMAHA GT-2000 + Oyaide MJ-12 + Clamp 580 g
Звукосниматель: Dynavector XX2MKII + Oyaide HSR-AG
Предварительный усилитель: YAMAHA C-4
АЦП: M-Audio ProFire 610
Программа-оцифровщик: Sound Forge Pro 12 Suite
Обработка: Неcколько мелких щелчков



Код: Выделить всё
foobar2000 1.2.2 / Замер динамического диапазона (DR) 1.1.1
Дата отчёта:  2019-09-27 01:14:57
--------------------------------------------------------------------------------
Анализ:   Дос-Мукасан / Дос-Мукасан (LP)
--------------------------------------------------------------------------------
DR         Пики         RMS           Продолжительность трека
--------------------------------------------------------------------------------
DR11      -0.46 дБ   -14.71 дБ      7:45 ?-Бетпак Дала (Голодная степь)
DR12      -0.81 дБ   -16.15 дБ      4:05 ?-Ахау Бикем (Прекрасная девушка)
DR11      -1.03 дБ   -15.03 дБ      5:02 ?-Аяулым (Моя нежная)
DR11      -0.63 дБ   -15.07 дБ      2:10 ?-Ляйлым шырак (Дорогая Ляйлым)
DR10      -1.13 дБ   -15.61 дБ      4:47 ?-Туган Жер (Родная земля)
DR12      -1.18 дБ   -16.33 дБ      3:04 ?-16 Кыз (16 девушек)
DR10      -1.67 дБ   -14.77 дБ      4:19 ?-Куа Бол (Будь свидетелем моей любви)
DR12      -0.74 дБ   -16.41 дБ      3:23 ?-Сулу Кыз (Красивая девушка)
DR11      -0.16 дБ   -14.50 дБ      3:00 ?-Куанышым Меным (Радость моя)
--------------------------------------------------------------------------------
Количество треков: 9
Реальные значения DR: DR11
Частота:   192000 Гц
Каналов:   2
Разрядность:   32
Битрейт:   12288 кбит/с
Кодек:   PCM
================================================================================
[/spoiler]
Спасибо vitalaleks, за предоставленную пластинку для оцифровки!
[/spoiler]
Не забывайте говорить Спасибо. Не уходите с раздачи!   
Торрент: Зарегистрирован [26 сен 2019, 19:35]
Статус:
Проверен
 
.torrent скачан: 0 раз
Хэш: 39ac323f62f19e357ce726cbe1806fd9fc7fb07e
Размер: 2.76 ГБ (2 963 823 601 байт)
   Стать Автором раздачи
   
Цитата

Вернуться в Фольклор, народная и этническая музыка (оцифровки)

Кто сейчас на конференции

Сейчас эту тему просматривают: нет зарегистрированных пользователей и гости: 1