(Hindustani Classical) [LP] Ravi Shankar - Music of India - 1962, FLAC (tracks+.cue), lossless

 Статистика раздачи 
Размер: 293.32 МБ   |  Зарегистрирован: 01 дек 2014, 20:08   |   .torrent скачан: 0 раз
Сидеров: 0  [ 0 байт/сек ]     Личеров: 0  [ 0 байт/сек ]  
  
Аватара пользователя
Главный редактор
Главный редактор
Я на сайте
 
Раздал: 90.01 ТБ
Скачал: 3.78 ТБ
Ратио: 24.248
Сообщения: 273585
Стаж: 9 лет 1 месяц 11 дней
Откуда: Санкт-Петербург

Ravi Shankar / Music of India
Жанр: Hindustani Classical
Носитель: LP
Страна-производитель диска: India
Год издания: 1962
Издатель (лейбл): HMV
Номер по каталогу: ALP 1893
Страна исполнителя (группы): India
Аудиокодек: FLAC (*.flac)
Тип рипа: tracks+.cue
Битрейт аудио: lossless
Продолжительность: 00:45:15
Источник (релизер): susursi7
Наличие сканов в содержимом раздачи: да
Треклист:
01 Raga Hamsadhwani (Evening Raga)
02 Dhun Kafi (Spring Season)
03 Raga Ramkali (Morning Raga)
Код: Выделить всё
REM GENRE Hindustani Classical
REM DATE 1962
REM DISCID 2XEF74(00-616)
REM COMMENT Credits - Kanai Dutt (Tabla), Nodu Mullick (Tamboura)
CATALOG ALP1893
PERFORMER "Ravi Shankar"
TITLE "Music of India"
FILE "Side-1.flac" WAVE
  TRACK 01 AUDIO
    TITLE "Raga Hamsadhwani (Evening Raga)"
    INDEX 01 00:00:00
  TRACK 02 AUDIO
    TITLE "Dhun Kafi (Spring Season)"
    INDEX 01 08:55:00
FILE "Side-2.flac" WAVE
  TRACK 03 AUDIO
    TITLE "Raga Ramkali (Morning Raga)"
    INDEX 01 00:00:00



Доп. информация: This is a re-mastered release of album that was released previously here https://rutracker.org/forum/viewtopic.php?t=3738273 by susursi7. Prior permission has been obtained from susursi7 (the original releaser of the album). Many a thanks to susursi7 for this wonderful release and for his kind permission nonetheless.
-------------------------------------
Audio Re-mastering Workflow
-------------------------------------
1. Converted from to WAV keeping original bit-rate/sampling-frequency intact i.e. 24/96.
2. Normalized maximum amplitude to 0dB.
3. Applied dynamic range compression and made-up gain for 0dB after compression (Threshold -12dB, Noise-Floor -40bB, Attack-Time 0.2 sec, Release-Time 1.0 sec).
4. Removed clicks and pops.
5. Duplicated tracks.
6. Assigned the tracks to left and right channels.
6. Mixed and rendered to stereo track.
7. Applied controlled reverb to introduce pseudo-streo effect.
8. And finally downsampled to 16/41.
Apart from re-mastering the audio, I have worked on cover scans too. Adjusted the RGB levels, corrected pin-cushion distortion, straightened and cropped.
Please download, listen and share your experience. Tell me how I fared the job. Thanks!
Не забывайте говорить Спасибо. Не уходите с раздачи!   
Торрент: Зарегистрирован [01 дек 2014, 20:08]
Статус:
Проверен
 
.torrent скачан: 0 раз
Хэш: e51ae0c3e717b7f6304d554497433c36ecf8af00
Размер: 293.32 МБ (307 572 053 байт)
   Стать Автором раздачи
   
Цитата
  • Похожие торренты
    Ответы
    Просмотры
    Последнее сообщение

Вернуться в Фольклор, народная и этническая музыка (оцифровки)

Кто сейчас на конференции

Сейчас эту тему просматривают: нет зарегистрированных пользователей и гости: 1