(Folk, World & Country) [LP] [24/96] Charlie Rich ‎– Behind Closed Doors - 1973, FLAC (image+.cue)

 Статистика раздачи 
Размер: 641.39 МБ   |  Зарегистрирован: 23 окт 2015, 10:39   |   .torrent скачан: 0 раз
Сидеров: 0  [ 0 байт/сек ]     Личеров: 0  [ 0 байт/сек ]  
  
Аватара пользователя
Главный редактор
Главный редактор
Я на сайте
 
Раздал: 90.01 ТБ
Скачал: 3.78 ТБ
Ратио: 24.248
Сообщения: 273585
Стаж: 9 лет 1 месяц 11 дней
Откуда: Санкт-Петербург

Charlie Rich ‎– Behind Closed Doors (1973)
Жанр: Folk, World & Country
Носитель: LP
Год выпуска: 1973
Лейбл: Epic ‎– EPC 65716
Страна-производитель: UK
Аудио кодек: FLAC
Тип рипа: image+.cue
Формат записи: 24/192
Формат раздачи: 24/96
Продолжительность: 00:32:49
Тэги в .cue: прописаны
Источник оцифровки: автором раздачи
Код класса состояния винила: VG+
Устройство воспроизведения: Электроника ЭП 017С
Головка звукоснимателя: ГЗМ – 028 (Корвет)
Предварительный усилитель: AMX - 100 (LTO®)
АЦП: Juli@
Программа-оцифровщик: Adobe Audition CS6 5.0.2.
Обработка: без обработки

A1 Behind Closed Doors
Written-By – K. O'Del

A2 If You Wouldn't Be My Lady
Written-By – E. Reeves, J. Holiday

A3 You Never Really Wanted Me
Written-By – A. Rich
A4 A Sunday Kind Of Woman
Written-By – M. A. Rich
A5 Peace On You
Written-By – C. Rich
B1 The Most Beautiful Girl
Written-By – B. Sherrill, N. Wilson, R. Bourke
B2 I Take It On Home
Written-By – K. O'Dell
B3 'Til I Can't Take It Anymore
Written-By – C. Otis, D. Burton
B4 We Love Each Other
Written-By – B. Killen
B5 I'm Not Going Hungry Anymore
Written-By – F. Hart
B6 Nothing In The World (To Do With Me)
Written-By – M. A. Rich


Код: Выделить всё
REM GENRE Folk, World & Country
REM DATE 1973
REM COMENT Vinyl, LP, Epic – EPC 65716, UK
TITLE Behind Closed Doors
PERFORMER Charlie Rich
FILE "01. Charlie Rich - Side 1.flac" WAVE
  TRACK 01 AUDIO
    TITLE "A1 Behind Closed Doors"
    INDEX 01 00:00:00
  TRACK 02 AUDIO
    TITLE "A2 If You Wouldn't Be My Lady"
    INDEX 01 03:06:38
  TRACK 03 AUDIO
    TITLE "A3 You Never Really Wanted Me"
    INDEX 01 06:02:54
  TRACK 04 AUDIO
    TITLE "A4 A Sunday Kind Of Woman"
    INDEX 01 08:32:54
  TRACK 05 AUDIO
    TITLE "A5 Peace On You"
    INDEX 01 11:44:43
FILE "02. Charlie Rich - Side 2.flac" WAVE
  TRACK 06 AUDIO
    TITLE "B1 The Most Beautiful Girl"
    INDEX 01 00:00:00
  TRACK 07 AUDIO
    TITLE "B2 I Take It On Home"
    INDEX 01 02:59:45
  TRACK 08 AUDIO
    TITLE "B3 'Til I Can't Take It Anymore"
    INDEX 01 05:58:35
  TRACK 09 AUDIO
    TITLE "B4 We Love Each Other"
    INDEX 01 08:34:47
  TRACK 10 AUDIO
    TITLE "B5 I'm Not Going Hungry Anymore"
    INDEX 01 11:48:42
  TRACK 11 AUDIO
    TITLE "B6 Nothing In The World (To Do With Me)"
    INDEX 01 14:05:67
Не забывайте говорить Спасибо. Не уходите с раздачи!   
Торрент: Зарегистрирован [23 окт 2015, 10:39]
Статус:
Проверен
 
.torrent скачан: 0 раз
Хэш: 4e7a8413a9a24bd744d8e9a21037655e81945f50
Размер: 641.39 МБ (672 545 114 байт)
   Стать Автором раздачи
   
Цитата

Вернуться в Фольклор, народная и этническая музыка (оцифровки)

Кто сейчас на конференции

Сейчас эту тему просматривают: нет зарегистрированных пользователей и гости: 1