(Breton,Celtic, Folk) [LP] [24/48] Alan Stivell ‎– Un Dewezh 'Barzh 'Gêr (Journée à La Maison) - 1978, FLAC (image+.cue)

 Статистика раздачи 
Размер: 403.44 МБ   |  Зарегистрирован: 22 июн 2019, 17:06   |   .torrent скачан: 0 раз
Сидеров: 0  [ 0 байт/сек ]     Личеров: 0  [ 0 байт/сек ]  
  
Аватара пользователя
Главный редактор
Главный редактор
 
Раздал: 90.01 ТБ
Скачал: 3.78 ТБ
Ратио: 24.248
Сообщения: 274106
Стаж: 9 лет 1 месяц 17 дней
Откуда: Санкт-Петербург

Alan Stivell ‎– Un Dewezh 'Barzh 'Gêr (Journée à La Maison)
Жанр: Breton,Celtic, Folk
Носитель: LP
Год выпуска: 1978
Лейбл: Keltia III 2424 178
Страна-производитель: Канада
Аудио кодек: FLAC
Тип рипа: image+.cue
Формат записи: 24/48
Формат раздачи: 24/48
Продолжительность: 00:35:40
Треклист:
A1 Trinquons Nos Verres
A2 Ar Wezenn Awaloù
A3 Henchoú Kuzh (Chemins Invisibles)
A4 Tabud Kemper (Manifestation À Quimper)
A5 Warlec'h Koan (Après-Dîner)
B1 An Try Marrak (Les Trois Chevaliers)
B2 'Tal An Tan (Face À L'Âtre)
B3 An Nighean Dubh (La Fille Aux Cheveux Noirs)
B4 Slán Chearbhallain (L'Adieu D'O'Carolan)
B5 Inisi Hanternos (Les Îles Du Nord)
Источник оцифровки: автором раздачи
Код класса состояния винила: VG
Устройство воспроизведения: Sony PS-LX250H
Головка звукоснимателя: Sony [неизвестный]
Предварительный усилитель: Yamaha A-500
АЦП: Lexicon Alpha
Программа-оцифровщик: Audacity [Ubuntu]
Обработка: Без обработки



REM GENRE "Breton,Celtic"
REM DATE "1978"
PERFORMER "Alan Stivell"
TITLE "Un Dewezh 'Barzh 'Gêr (Journée À La Maison)"
REM COMMENT "From LP"
REM COUNTRY "Canada"
FILE "Alan Stivell ‎– Un Dewezh 'Barzh 'Gêr (Journée À La Maison).flac" WAVE
REM LABEL "Keltia III"
REM LABELNUMBER "2424 178"
TRACK 01 AUDIO
TITLE "Trinquons Nos Verres"
PERFORMER "Alan Stivell"
INDEX 01 00:00:00
TRACK 02 AUDIO
TITLE "Ar Wezenn Awaloù"
PERFORMER "Alan Stivell"
INDEX 01 04:21:00
TRACK 03 AUDIO
TITLE "Henchoú Kuzh (Chemins Invisibles)"
PERFORMER "Alan Stivell"
INDEX 01 09:01:04
TRACK 04 AUDIO
TITLE "Tabud Kemper (Manifestation À Quimper) "
PERFORMER "Alan Stivell"
INDEX 01 11:27:00
TRACK 05 AUDIO
TITLE "Warlec'h Koan (Après-Dîner)"
PERFORMER "Alan Stivell"
INDEX 01 14:35:00
TRACK 06 AUDIO
TITLE "An Try Marrak (Les Trois Chevaliers)"
PERFORMER "Alan Stivell"
INDEX 01 17:39:00
TRACK 07 AUDIO
TITLE "'Tal An Tan (Face À L'Âtre)"
PERFORMER "Alan Stivell"
INDEX 01 23:31:00
TRACK 08 AUDIO
TITLE "An Nighean Dubh (La Fille aux Cheveux Noirs)"
PERFORMER "Alan Stivell"
INDEX 01 28:48:04
TRACK 09 AUDIO
TITLE "Slán Chearbhallain (L'Adieu D'O'Carolan)"
PERFORMER "Alan Stivell"
INDEX 01 31:53:00
TRACK 10 AUDIO
TITLE "Inisi Hanternos (Les Îles Du Nord)"
PERFORMER "Alan Stivell"
INDEX 01 32:47:00
Не забывайте говорить Спасибо. Не уходите с раздачи!   
Торрент: Зарегистрирован [22 июн 2019, 17:06]
Статус:
Проверен
 
.torrent скачан: 0 раз
Хэш: a514ca7fee78432ed1d47e82ff4c68e9080bb560
Размер: 403.44 МБ (423 040 358 байт)
   Стать Автором раздачи
   
Цитата

Вернуться в Фольклор, народная и этническая музыка (оцифровки)

Кто сейчас на конференции

Сейчас эту тему просматривают: нет зарегистрированных пользователей и гости: 1