(African-Roots, Percussion) [LP] [24/96] Guem Et Zaka Percussion – Percussions - 1978, FLAC (tracks+.cue)

 Статистика раздачи 
Размер: 502.14 МБ   |  Зарегистрирован: 25 окт 2017, 06:38   |   .torrent скачан: 0 раз
Сидеров: 0  [ 0 байт/сек ]     Личеров: 0  [ 0 байт/сек ]  
  
Аватара пользователя
Главный редактор
Главный редактор
 
Раздал: 90.01 ТБ
Скачал: 3.78 ТБ
Ратио: 24.248
Сообщения: 274043
Стаж: 9 лет 1 месяц 16 дней
Откуда: Санкт-Петербург

Guem Et Zaka Percussion – Percussions
Жанр: African-Roots, Percussion
Носитель: LP
Год выпуска: 1978
Лейбл: Le Chant Du Monde/LDX 74674
Страна-производитель: France
Аудио кодек: FLAC
Тип рипа: tracks+.cue
Формат записи: 24/96
Формат раздачи: 24/96
Продолжительность: 27:33
Треклист:
A1 L’Abeille
A2 La Foret Vierge
A3 La Girafe, Mambo
B1 Le Serpent
B2 Chanson
B3 Afrique Tango
Источник оцифровки: LP Rip & Full Scan LP Cover: Fran Solo
Код класса состояния винила: NM
Устройство воспроизведения: Technics SL-1200MK2 Quartz
Головка звукоснимателя: SHURE M97xE With JICO SAS Stylus
Предварительный усилитель: Marantz 2252
АЦП: E-MU 0404
Программа-оцифровщик: Manual DeClick with iZotope RX5
Обработка: Manual DeClick with iZotope RX5
----------------------------------------------------------------------------------------------
Analyzed folder: /Guem Et Zaka Percussion - Percussions (LP)
----------------------------------------------------------------------------------------------
DR Peak RMS Filename
----------------------------------------------------------------------------------------------
DR18 -2.33 dB -22.23 dB 01 Guem Et Zaka Percussion - LADO 1- L'Abeille.wav
DR16 -0.37 dB -18.83 dB 02 Guem Et Zaka Percussion - La Foret Vierge.wav
DR16 -1.83 dB -19.79 dB 03 Guem Et Zaka Percussion - La Girafe, Mambo.wav
DR17 -0.69 dB -18.68 dB 04 Guem Et Zaka Percussion - LADO 2- Le Serpent.wav
DR17 -2.73 dB -22.74 dB 05 Guem Et Zaka Percussion - Chanson.wav
DR16 -0.25 dB -17.60 dB 06 Guem Et Zaka Percussion - Afrique Tango.wav
----------------------------------------------------------------------------------------------
Number of files: 6
Official DR value: DR17
==============================================================================================
Percussion – Daniel Piollet, Eric Aerts, Guem, Jean-Luc Ceddaha, Jean-Michel Bertrand, Remi Gomes
Born to Nigerian parents brought to Algeria, percussionist Guem grew up playing traditional music and trance rhythms from an early age. His family soon initiated him into the secrets of the diwan–ceremonies where many of the participants enter a state of trance. The influence of the diwan is fully evident in this mellow and beautifully restrained percussion LP from 1978. While the album is definitely in the Afro-Caribbean vein, the emphasis is more on the Afro than the Caribbean. What is particuarly striking is that for a percussion ensemble, the music is melodious and has many tranquil moments–especially when Guem is playing unaccompanied. An open, honest, and very listenable record.
перкуссионист Гюм родился в Батне (Алжир) 9 марта 1947 года в семье нигерийцев, выпустил около 20 альбомов . Он с раннего возраста рос окружении в традиционной музыки и ритмов. что полностью проявляется в этом мягком и прекрасно сдержанном перкуссионном LP 1978 года. Хотя альбом определенно звучит в афро-карибском ключе, акцент делается больше на афро, чем на карибы. Что особенно поразительно, так это то, что для ударного ансамбля музыка мелодична и имеет много спокойных моментов, особенно когда Гюм играет без сопровождения. Открытая, честная и очень послушная запись.
Matrix / Runout (Run-out side A): MPO DL / XB1 I 74674 A'
Matrix / Runout (Run-out side B): MPO DL / XB1 I 74674 B1
Rights Society: SACEM
#7#77#77
Не забывайте говорить Спасибо. Не уходите с раздачи!   
Торрент: Зарегистрирован [25 окт 2017, 06:38]
Статус:
Проверен
 
.torrent скачан: 0 раз
Хэш: a49291dfa937df1454aabc4f91e250800ca2497f
Размер: 502.14 МБ (526 528 047 байт)
   Стать Автором раздачи
   
Цитата

Вернуться в Фольклор, народная и этническая музыка (оцифровки)

Кто сейчас на конференции

Сейчас эту тему просматривают: нет зарегистрированных пользователей и гости: 1