(Country) [LP] [24/48] Kenny Rogers - The Best - 1980, FLAC (tracks+.cue)

 Статистика раздачи 
Размер: 526.6 МБ   |  Зарегистрирован: 12 мар 2015, 05:23   |   .torrent скачан: 0 раз
Сидеров: 0  [ 0 байт/сек ]     Личеров: 0  [ 0 байт/сек ]  
  
Аватара пользователя
Главный редактор
Главный редактор
 
Раздал: 90.01 ТБ
Скачал: 3.78 ТБ
Ратио: 24.248
Сообщения: 274043
Стаж: 9 лет 1 месяц 16 дней
Откуда: Санкт-Петербург

Kenny Rogers - The Best
Жанр: Country
Носитель: LP
Год выпуска: 1980
Лейбл: Мелодия (TSG)
Страна-производитель: USSR
Аудио кодек: FLAC
Тип рипа: tracks+.cue
Формат записи: 32/192
Формат раздачи: 24/48
Продолжительность: 44:19
Треклист:
01. Lucille
02. The Gambler
03. I Wish That I Could Hurt That Way Again
04. King Of Oak Street
05. Making Music For Money
06. The Hoodooin' Of Miss Fannie Deberry
07. Till I Get It Right
08. She Believes In Me
09. Tennessee Bottle
10. Sleep Tight, Goodnight Man
11. A Little More Like Me
12. San Francisco Mabel Joy
Источник оцифровки: автором раздачи
Код класса состояния винила: NM
Устройство воспроизведения: Электроника ЭП 017С
Головка звукоснимателя: Audio-Technica AT95
Предварительный усилитель: Бриг-001
АЦП: VIA HD audio device
Программа-оцифровщик: Izotope RX 4 Advanced
Обработка: Izotope RX 4 Advanced
foobar2000 1.1.10 / Dynamic Range Meter 1.1.1
log date: 2015-02-27 15:02:41
--------------------------------------------------------------------------------
Analyzed: Kenny Rogers / The Best
--------------------------------------------------------------------------------
DR Peak RMS Duration Track
--------------------------------------------------------------------------------
DR11 -1.43 dB -15.38 dB 3:39 ?-Lucille
DR13 -2.12 dB -18.93 dB 3:33 ?-The Gambler
DR13 -3.00 dB -20.21 dB 2:59 ?-I Wish That I Could Hurt That Way Again
DR14 -2.56 dB -20.62 dB 5:05 ?-King Of Oak Street
DR13 -0.48 dB -14.61 dB 3:21 ?-Making Music For Money
DR14 -2.19 dB -19.45 dB 4:46 ?-The Hoodooin' Of Miss Fannie Deberry
DR10 -4.14 dB -16.53 dB 3:04 ?-Till I Get It Right
DR12 -5.18 dB -21.78 dB 4:15 ?-She Believes In Me
DR13 -4.40 dB -20.20 dB 4:04 ?-Tennessee Bottle
DR13 -5.51 dB -20.23 dB 2:57 ?-Sleep Tight, Goodnight Man
DR13 -6.00 dB -21.21 dB 2:52 ?-A Little More Like Me
DR12 -3.81 dB -20.04 dB 3:43 ?-San Francisco Mabel Joy
--------------------------------------------------------------------------------
Number of tracks: 12
Official DR value: DR13
Samplerate: 48000 Hz
Channels: 2
Bits per sample: 24
Bitrate: 1603 kbps
Codec: FLAC
================================================================================
Не забывайте говорить Спасибо. Не уходите с раздачи!   
Торрент: Зарегистрирован [12 мар 2015, 05:23]
Статус:
Проверен
 
.torrent скачан: 0 раз
Хэш: b99cb4b1bb3895813321dc7a7ace301d6dbe521a
Размер: 526.6 МБ (552 181 578 байт)
   Стать Автором раздачи
   
Цитата

Вернуться в Фольклор, народная и этническая музыка (оцифровки)

Кто сейчас на конференции

Сейчас эту тему просматривают: нет зарегистрированных пользователей и гости: 1