(Poetry, Folk) [LP] [24/96] Алексей Покровский – Русские Народные Песни И Романсы - 1977, FLAC (image+.cue)

 Статистика раздачи 
Размер: 836.07 МБ   |  Зарегистрирован: 18 сен 2018, 05:46   |   .torrent скачан: 0 раз
Сидеров: 0  [ 0 байт/сек ]     Личеров: 0  [ 0 байт/сек ]  
  
Аватара пользователя
Главный редактор
Главный редактор
 
Раздал: 90.01 ТБ
Скачал: 3.78 ТБ
Ратио: 24.248
Сообщения: 274856
Стаж: 9 лет 1 месяц 20 дней
Откуда: Санкт-Петербург

Алексей Покровский (1977)
Русские Народные Песни И Романсы

Жанр: Poetry, Folk
Носитель: LP
Год выпуска: 1977
Лейбл: Мелодия - С20 08717-8
Страна-производитель: USSR
Аудио кодек: FLAC
Тип рипа: image+.cue
Формат записи: 24/192
Формат раздачи: 24/96
Продолжительность: 00:43:26
Треклист:
Источник оцифровки: автором раздачи
Код класса состояния винила: VG
Устройство воспроизведения: Электроника ЭП 017С
Головка звукоснимателя: ГЗМ – 028 (Корвет)
Предварительный усилитель: AMX - 100 (LTO®)
АЦП: Juli@
Программа-оцифровщик: Adobe Audition CS6 5.0.2.
Обработка: удаление артефактов
01. Сон русского на чужбине (Вот мчится тройка удалая)
(муз. народная – Ф.Глинка)
02. Среди долины ровныя
(муз. народная – А. Мерзляков)

03. По посаду городскому
(муз. народная – Д. Садовников)
04. Кольцо души-девицы
(муз. народная – В. Жуковский)
05. Я Вас любил
(Б. Шереметьев – А. Пушкин)
06. Звезды на небе
(Б. Борисов – Е. Дитерихс)
07. Калитка
(А. Обухов – А. Будищев)
08. Наглядитесь на меня
(неизв. авт.)
09. Я Вас любил… в минуты увлеченья
(неизв. авт.)
10. Не спрашивай
(муз. неизв. – А.П ушкин)

Код: Выделить всё
foobar2000 1.1.3 / Dynamic Range Meter 1.1.1
log date: 2018-09-18 10:09:25
--------------------------------------------------------------------------------
Analyzed: Алексей Покровский / Русские Народные Песни И Романсы
--------------------------------------------------------------------------------
DR         Peak         RMS     Duration Track
--------------------------------------------------------------------------------
DR11      -0.47 dB   -16.22 dB      5:24 ?-01. Сон русского на чужбине (Вот мчится тройка удалая)
DR10      -0.10 dB   -13.75 dB      5:31 ?-02. Среди долины ровныя
DR11      -0.10 dB   -14.79 dB      6:00 ?-03. По посаду городскому
DR9       -0.82 dB   -13.55 dB      4:51 ?-04. Кольцо души-девицы
DR10      -0.10 dB   -14.98 dB      3:13 ?-05. Я Вас любил
DR10      -0.86 dB   -13.98 dB      4:51 ?-06. Звезды на небе
DR10      -0.35 dB   -13.85 dB      3:52 ?-07. Калитка
DR10      -0.17 dB   -13.94 dB      3:35 ?-08. Наглядитесь на меня
DR11      -0.55 dB   -14.88 dB      2:51 ?-09. Я Вас любил… в минуты увлеченья
DR10      -0.10 dB   -13.57 dB      3:19 ?-10. Не спрашивай
--------------------------------------------------------------------------------
Number of tracks:  10
Official DR value: DR10
Samplerate:        96000 Hz
Channels:          2
Bits per sample:   24
Bitrate:           2680 kbps
Codec:             FLAC
================================================================================
Код: Выделить всё
REM GENRE "Poetry, Folk"
REM DATE "1977"
REM COMMENT "Vinyl, LP, Album, Мелодия - С20 08717-8, USSR"
PERFORMER "Алексей Покровский"
TITLE "Русские Народные Песни И Романсы"
FILE "01. Сторона 1.flac" WAVE
  TRACK 01 AUDIO
    TITLE "01. Сон русского на чужбине (Вот мчится тройка удалая)"
    INDEX 01 00:00:00
  TRACK 02 AUDIO
    TITLE "02. Среди долины ровныя "
    INDEX 01 05:24:02
  TRACK 03 AUDIO
    TITLE "03. По посаду городскому "
    INDEX 01 10:54:53
  TRACK 04 AUDIO
    TITLE "04. Кольцо души-девицы"
    INDEX 01 16:54:47
FILE "02. Сторона 2.flac" WAVE
  TRACK 05 AUDIO
    TITLE "05. Я Вас любил"
    INDEX 01 00:00:00
  TRACK 06 AUDIO
    TITLE "06. Звезды на небе"
    INDEX 01 03:12:41
  TRACK 07 AUDIO
    TITLE "07. Калитка"
    INDEX 01 08:03:10
  TRACK 08 AUDIO
    TITLE "08. Наглядитесь на меня"
    INDEX 01 11:55:22
  TRACK 09 AUDIO
    TITLE "09. Я Вас любил… в минуты увлеченья"
    INDEX 01 15:30:02
  TRACK 10 AUDIO
    TITLE "10. Не спрашивай"
    INDEX 01 18:21:14


Не забывайте говорить Спасибо. Не уходите с раздачи!   
Торрент: Зарегистрирован [18 сен 2018, 05:46]
Статус:
Проверен
 
.torrent скачан: 0 раз
Хэш: 1873539519331dc82062d4adcb079f73b7db273b
Размер: 836.07 МБ (876 682 881 байт)
   Стать Автором раздачи
   
Цитата

Вернуться в Фольклор, народная и этническая музыка (оцифровки)

Кто сейчас на конференции

Сейчас эту тему просматривают: нет зарегистрированных пользователей и гости: 1