(Honky Tonk, Folk, Christmas) [LP] [24/96] Mitch Miller And The Gang - Holiday Sing Along With Mitch - 1961, FLAC (tracks+.cue)

 Статистика раздачи 
Размер: 711.22 МБ   |  Зарегистрирован: 03 янв 2019, 17:23   |   .torrent скачан: 0 раз
Сидеров: 0  [ 0 байт/сек ]     Личеров: 0  [ 0 байт/сек ]  
  
Аватара пользователя
Главный редактор
Главный редактор
 
Раздал: 90.01 ТБ
Скачал: 3.78 ТБ
Ратио: 24.248
Сообщения: 273485
Стаж: 9 лет 1 месяц 11 дней
Откуда: Санкт-Петербург

Mitch Miller And The Gang - Holiday Sing Along With Mitch
Жанр: Honky Tonk, Folk, Christmas
Носитель: LP, Stereo
Год выпуска: 1961
Лейбл: Columbia - CS 8501
Страна-производитель: US
Аудио кодек: FLAC
Тип рипа: tracks+.cue
Формат записи: 24/96
Формат раздачи: 24/96
Продолжительность: 00:36:17
Side 1
A1 - Santa Claus Is Coming To Town
Written-By - H. Gillespie, J. F. Coots
A2 - Frosty The Snowman
Written-By - J. Rollins, S. Nelson
A3 - I Saw Mommy Kissing Santa Claus
Written-By - T. Conner
A4 - Sleigh Ride
Written-By - L. Anderson, M. Parish
A5 - Must Be Santa
Written-By - B. Fredericks, H. Moore
A6 - The Christmas Song (Merry Christmas To You)
Written-By - M. Torme, R. Wells
Side 2
B1 - Rudolph, The Red-Nosed Reindeer
Written-By - J. Marks
B2 - The Twelve Days Of Christmas
Arranged By - J. Carroll
B3 - Winter Wonderland
Written-By - R. Smith, F. Bernard
B4 - Let It Snow! Let It Snow! Let It Snow!
Written-By - J. Styne, S. Cahn
B5 - Silver Bells
Written-By - J. Livingston - R. Evans
B6 - Jingle Bells
Arranged By - J. Carroll
B7 - White Christmas
Written-By - I. Berlin
Notes
Available on Regular-CL 1701
Barcode and Other Identifiers
Matrix / Runout (Side B): C XSM54005-1F
Matrix / Runout (Side A): C XSM54004-1G
Источник оцифровки: третьим лицом
Код класса состояния винила: VG+
Устройство воспроизведения: Technics SL1200 Mk2
Головка звукоснимателя: Nagatron 350e
Предварительный усилитель: Pioneer SX-850
АЦП: E-MU-0404
Программа-оцифровщик: Не указано
Обработка: Не указано
Доп. информация:
foobar2000 1.3.2 / Dynamic Range Meter 1.1.1
log date: 2014-12-07 11:07:57
--------------------------------------------------------------------------------
Analyzed: Mitch Miller And The Gang / Holiday Sing Along With Mitch
--------------------------------------------------------------------------------
DR Peak RMS Duration Track
--------------------------------------------------------------------------------
DR10 -4.44 dB -16.37 dB 2:09 01-Santa Claus Is Coming To Town
DR10 -4.18 dB -16.56 dB 2:37 02-Frosty The Snowman
DR10 -4.49 dB -16.49 dB 2:31 03-I Saw Mommy Kissing Santa Claus
DR10 -4.63 dB -16.64 dB 3:01 04-Sleigh Ride
DR10 -4.62 dB -17.23 dB 2:46 05-Must Be Santa
DR10 -5.52 dB -17.16 dB 3:37 06-The Christmas Song (Merry Christmas To You)
DR10 -4.98 dB -17.29 dB 2:28 07-Rudolph, The Red-Nosed Reindeer
DR10 -4.86 dB -17.71 dB 4:16 08-The Twelve Days Of Christmas
DR10 -5.47 dB -17.67 dB 2:53 09-Winter Wonderland
DR10 -5.54 dB -17.48 dB 2:27 10-Let It Snow! Let It Snow! Let It Snow!
DR10 -5.51 dB -17.47 dB 2:37 11-Silver Bells
DR10 -5.78 dB -17.74 dB 2:10 12-Jingle Bells
DR10 -5.06 dB -16.99 dB 2:44 13-White Christmas
--------------------------------------------------------------------------------
Number of tracks: 13
Official DR value: DR10
Samplerate: 96000 Hz
Channels: 2
Bits per sample: 24
Bitrate: 2730 kbps
Codec: FLAC
================================================================================
Не забывайте говорить Спасибо. Не уходите с раздачи!   
Торрент: Зарегистрирован [03 янв 2019, 17:23]
Статус:
Проверен
 
.torrent скачан: 0 раз
Хэш: fcd7d252ad4ce7b5d609fa6976ef9537998cb338
Размер: 711.22 МБ (745 768 510 байт)
   Стать Автором раздачи
   
Цитата

Вернуться в Фольклор, народная и этническая музыка (оцифровки)

Кто сейчас на конференции

Сейчас эту тему просматривают: нет зарегистрированных пользователей и гости: 1