(Classical Indian, Raga, Traditional Indian,) [LP] [24/48] Ravi Shankar-Ragas & Talas - 1964, FLAC (tracks)

 Статистика раздачи 
Размер: 601.82 МБ   |  Зарегистрирован: 27 сен 2018, 14:09   |   .torrent скачан: 0 раз
Сидеров: 0  [ 0 байт/сек ]     Личеров: 0  [ 0 байт/сек ]  
  
Аватара пользователя
Главный редактор
Главный редактор
 
Раздал: 90.01 ТБ
Скачал: 3.78 ТБ
Ратио: 24.248
Сообщения: 274898
Стаж: 9 лет 1 месяц 21 день
Откуда: Санкт-Петербург

Ravi Shankar-Ragas & Talas
Жанр: Classical Indian, Raga, Traditional Indian,
Носитель: LP
Год выпуска: 1964
Лейбл: World Pacific ST-1431
Страна-производитель: США
Аудио кодек: FLAC
Тип рипа: tracks
Формат записи: 24/48
Формат раздачи: 24/48
Продолжительность: 00:51:58
Треклист:
01 Raga Jagiya
02 Dhun
03 Rupak Tal
04 Raga Madhu-Kauns
Источник оцифровки: автором раздачи
Код класса состояния винила: VG
Устройство воспроизведения: Sony PS-LX250H
Головка звукоснимателя: Sony [неизвестный]
Предварительный усилитель: Yamaha A-500
АЦП: Lexicon Alpha
Программа-оцифровщик: Audacity [Ubuntu]
Обработка: Удаление щелчков






foobar2000 1.4 / Dynamic Range Meter 1.1.1
log date: 2018-09-27 14:52:54
--------------------------------------------------------------------------------
Analyzed: Ravi Shankar / Ragas & Talas
--------------------------------------------------------------------------------
DR Peak RMS Duration Track
--------------------------------------------------------------------------------
DR15 -1.62 dB -20.85 dB 15:51 01-Raga Jagiya
DR15 -1.85 dB -21.11 dB 10:25 02-Dhun
DR16 -2.27 dB -22.27 dB 5:04 03-Rupak Tal
DR17 0.00 dB -23.94 dB 20:41 04-Haga Madhu-Kauns
--------------------------------------------------------------------------------
Number of tracks: 4
Official DR value: DR16
Samplerate: 48000 Hz
Channels: 2
Bits per sample: 24
Bitrate: 1515 kbps
Codec: FLAC
================================================================================
Не забывайте говорить Спасибо. Не уходите с раздачи!   
Торрент: Зарегистрирован [27 сен 2018, 14:09]
Статус:
Проверен
 
.torrent скачан: 0 раз
Хэш: 191bd468009387721c78a6f7263404e6a2b4c9c6
Размер: 601.82 МБ (631 053 967 байт)
   Стать Автором раздачи
   
Цитата

Вернуться в Фольклор, народная и этническая музыка (оцифровки)

Кто сейчас на конференции

Сейчас эту тему просматривают: нет зарегистрированных пользователей и гости: 1