(Hindustani, Indian Classical) [LP] [24/96] Ravi Shankar - Improvisations & Theme From Pather Panchali (1962) - Unknown, FLAC (tracks+.cue)

 Статистика раздачи 
Размер: 778.11 МБ   |  Зарегистрирован: 12 авг 2018, 08:49   |   .torrent скачан: 0 раз
Сидеров: 0  [ 0 байт/сек ]     Личеров: 0  [ 0 байт/сек ]  
  
Аватара пользователя
Главный редактор
Главный редактор
 
Раздал: 90.01 ТБ
Скачал: 3.78 ТБ
Ратио: 24.248
Сообщения: 274788
Стаж: 9 лет 1 месяц 19 дней
Откуда: Санкт-Петербург

Ravi Shankar - Improvisations & Theme From Pather Panchali (1962)
Жанр: Hindustani, Indian Classical
Носитель: LP, Reissue, Stereo
Год выпуска: Unknown
Лейбл: World Pacific - ST-1416
Страна-производитель: US
Аудио кодек: FLAC
Тип рипа: tracks+.cue
Формат записи: 32/96
Формат раздачи: 24/96
Продолжительность: 00:39:45
Треклист:
Side 1
A1 - Improvisation On The Theme Music From Pather Panchali 7:00
Composed By - Ravi Shankar
A2 - Fire Night 4:30
Composed By - Ravi Shankar
A3 - Karnataki - 6:35
Side 2
B1 - Raga Rageshri. Part 1 (Alap) 6:52
B2 - Raga Rageshri. Part 2 (Jor) 11:00
B2 - Raga Rageshri. Part 3 (Gat) 3:17
Companies, etc.
Record Company - Liberty Records, Inc.
Copyright (c) - World Pacific Records
Recorded At - World Pacific Studios
Pressed By - RCA Records Pressing Plant, Rockaway
Credits
Bass - Gary Peacock
Design [Cover], Photography By - Woody Woodward
Dholak, Tambura [Second] - Harihar Rao
Drums - Louis Hayes
Flute - Bud Shank
Guitar - Dennis Budimir
Liner Notes - Robert E. Brown
Producer, Recorded By [Audio By] - Richard Bock
Sitar - Ravi Shankar
Tabla - Kanai Dutta
Tambura - Nodu Mullick
Notes
US label variation
"A Product Of Liberty Records" & "A Division Of Liberty Records, Inc." printed on labels.
Liberty took over World Pacific in 1964 thus making this a reissue but cannot pinpoint date
Recorded at World-Pacific Studios Hollywood, California
Louis Hayes is heard by arrangement with Vee Jay Records
Copyright 1962 World Pacific Records
Printed in U.S.A.
B-side title
"Raga Rageshri" on the cover
"Raga Ragesal" on the label
Barcode and Other Identifiers
Matrix / Runout (Label side A): S-4012-A
Matrix / Runout (Label side B): S-4012-B
Matrix / Runout (Runout side A): 4012-A-3-A1 R + A1
Matrix / Runout (Runout side B): 4012-B-4 A1 R
Источник оцифровки: третьим лицом
Код класса состояния винила: Ex
Устройство воспроизведения: Technics SL 1210 Mk II
Головка звукоснимателя: Denon DL 304
Предварительный усилитель: NAD 3101
АЦП: Outboard M-Audio Profire 610 Multichannel
Программа-оцифровщик: Adobe Audition 3.0
Обработка: Manual declick and deglitch
Доп. информация:
--------------------------------------------------------------------------------
Analyzed: Ravi Shankar / Improvisations
--------------------------------------------------------------------------------
DR Peak RMS Duration Track
--------------------------------------------------------------------------------
DR15 -1.15 dB -20.57 dB 7:07 ?-01 Improvisation On The Theme Music From Pather Panchali
DR13 -0.04 dB -18.49 dB 4:37 ?-02 Fire Night
DR15 -0.32 dB -20.25 dB 6:43 ?-03 Karnataki
DR14 -9.43 dB -27.91 dB 6:51 ?-04 Raga Rageshri (Part 1 - Alap)
DR15 -3.72 dB -23.00 dB 11:02 ?-05 Raga Rageshri (Part 2 - Jor)
DR16 0.00 dB -20.95 dB 3:23 ?-06 Raga Rageshri (Part 3 - Gat)
--------------------------------------------------------------------------------
Number of tracks: 6
Maximum peak difference (0.00 dB - -9.43 dB): 9.43 dB
Official DR value (Song Mode): DR15
================================================================================
Не забывайте говорить Спасибо. Не уходите с раздачи!   
Торрент: Зарегистрирован [12 авг 2018, 08:49]
Статус:
Проверен
 
.torrent скачан: 0 раз
Хэш: 4aa9c5f62c5f56d5ae33a2b59df29e0a31e30f9c
Размер: 778.11 МБ (815 905 661 байт)
   Стать Автором раздачи
   
Цитата
  • Похожие торренты
    Ответы
    Просмотры
    Последнее сообщение

Вернуться в Фольклор, народная и этническая музыка (оцифровки)

Кто сейчас на конференции

Сейчас эту тему просматривают: нет зарегистрированных пользователей и гости: 1