(Indian Classical) [LP] [24/96] Ali Akbar Khan - North Indian Master Of The Sarod - 1964, FLAC (tracks+.cue)

 Статистика раздачи 
Размер: 872.78 МБ   |  Зарегистрирован: 20 окт 2016, 18:06   |   .torrent скачан: 0 раз
Сидеров: 0  [ 0 байт/сек ]     Личеров: 0  [ 0 байт/сек ]  
  
Аватара пользователя
Главный редактор
Главный редактор
 
Раздал: 90.01 ТБ
Скачал: 3.78 ТБ
Ратио: 24.248
Сообщения: 274106
Стаж: 9 лет 1 месяц 17 дней
Откуда: Санкт-Петербург

Ali Akbar Khan - North Indian Master Of The Sarod (1964)
Жанр: Indian Classical
Носитель: LP, Stereo
Год выпуска: Unknown
Лейбл: World Pacific - WPS-21433
Страна-производитель: USA
Аудио кодек: FLAC
Тип рипа: tracks+.cue
Формат записи: 24/96
Формат раздачи: 24/96
Продолжительность: 00:46:01
Треклист:
Side 1
Raga Darbari Kanara (Evening Raga)
A1 - Alap - 9:55
A2 - First Gat In Raga Misra Mand (Jor) / Tala Kaharwa 8 Beats (Jhala) / Second Gat In Tal Chachar 14 Beats - 12:40
Side 2
Raga Basant Mookhari (Morning Raga)
B1 - Alap - 9:40
B2 - Slow Gat In Tintal 16 Beats (Jor) / Fast Gat In Tintal 16 Beats (Jhala) - 13:21
Credits
Design [Cover] - Woody Woodward
Photography By - Phil Melnick
Producer, Engineer [Audio] - Richard Bock
Sarod - Ali Akbar Khan
Tabla - Shankar Ghosh
Tambura - Miss Sheela Mookerjee
Notes
Recorded at World Pacific Studio.
Источник оцифровки: третьим лицом
Код класса состояния винила: VG+
Устройство воспроизведения: Clearaudio “Custom”
Головка звукоснимателя: Clearaudio Virtuoso V2
Предварительный усилитель: Pro-Ject Phono Box RS
АЦП: Tascam DR100 MKII
Программа-оцифровщик: Tascam DR100 MKII
Обработка: Clickrepair, Light de-Clicking
Доп. информация:
foobar2000 1.3.8 / Dynamic Range Meter 1.1.1
log date: 2015-06-08 20:19:11
--------------------------------------------------------------------------------
Analyzed: Ali Akbar Khan / North Indian Master Of The Sarod
--------------------------------------------------------------------------------
DR Peak RMS Duration Track
--------------------------------------------------------------------------------
DR15 -3.38 dB -24.65 dB 10:01 01-Raga Darbari Kanara (Evening Raga) - Alap
DR15 -2.71 dB -21.31 dB 12:46 02-Raga Darbari Kanara (Evening Raga) - First Gat In Raga Misra Mand (Jor) / Tala Kaharwa 8 Beats (Jhala) / Second Gat In Tal Chachar 14 Beats
DR14 -0.58 dB -20.73 dB 9:46 03-Raga Basant Mookhari (Morning Raga) - Alap
DR15 0.00 dB -18.43 dB 13:27 04-Raga Basant Mookhari (Morning Raga) - Slow Gat In Tintal 16 Beats (Jor) / Fast Gat In Tintal 16 Beats (Jhala)
--------------------------------------------------------------------------------
Number of tracks: 4
Official DR value: DR15
Samplerate: 96000 Hz
Channels: 2
Bits per sample: 24
Bitrate: 4608 kbps
Codec: PCM
================================================================================
Не забывайте говорить Спасибо. Не уходите с раздачи!   
Торрент: Зарегистрирован [20 окт 2016, 18:06]
Статус:
Проверен
 
.torrent скачан: 0 раз
Хэш: 185ed5d04e5e86d52f24c0f55b4b1d6d592ff88c
Размер: 872.78 МБ (915 181 256 байт)
   Стать Автором раздачи
   
Цитата

Вернуться в Фольклор, народная и этническая музыка (оцифровки)

Кто сейчас на конференции

Сейчас эту тему просматривают: нет зарегистрированных пользователей и гости: 1