(Georgian Folk) [LP] [24/48] Гамлет Гонашвили - Поет Грузинские Народные Песни - 1983, FLAC (image+.cue)

 Статистика раздачи 
Размер: 408.01 МБ   |  Зарегистрирован: 28 апр 2014, 10:30   |   .torrent скачан: 0 раз
Сидеров: 0  [ 0 байт/сек ]     Личеров: 0  [ 0 байт/сек ]  
  
Аватара пользователя
Главный редактор
Главный редактор
 
Раздал: 90.01 ТБ
Скачал: 3.78 ТБ
Ратио: 24.248
Сообщения: 274898
Стаж: 9 лет 1 месяц 21 день
Откуда: Санкт-Петербург

Гамлет Гонашвили - Поет Грузинские Народные Песни
Жанр: Georgian Folk
Носитель: LP
Год выпуска: 1983
Лейбл: Melodya
Страна-производитель: USSR
Аудио кодек: FLAC
Тип рипа: image+.cue
Формат записи: 32/192
Формат раздачи: 24/48
Продолжительность: 40.38 min
Треклист:
01. Урмули
02. Чона
03. Сатрпиало
04. Даигвианес
05. Оровела
06. Гарекахури сачидао
07. Гапринди шаво мерцхало
08. Чела
09. Цинцкаро
Источник оцифровки: автором раздачи
Код класса состояния винила: Ex
Устройство воспроизведения: Электроника ЭП 017С
Головка звукоснимателя: Audio-Technica AT95
Предварительный усилитель: Бриг-001
АЦП: VIA HD audio device
Программа-оцифровщик: Izotope Rx III advanced
Обработка: Izotope Rx III advanced - Manual

foobar2000 1.1.10 / Dynamic Range Meter 1.1.1
log date: 2014-10-29 22:11:50
--------------------------------------------------------------------------------
Analyzed: Гамлет Гонашвили / Поет Грузинские Народные Песни
--------------------------------------------------------------------------------
DR Peak RMS Duration Track
--------------------------------------------------------------------------------
DR13 -2.05 dB -22.94 dB 4:58 ?-Урмули
DR12 -2.53 dB -19.20 dB 5:17 ?-Чона
DR13 -6.34 dB -23.99 dB 3:38 ?-Сатрпиало
DR13 -1.56 dB -20.44 dB 6:00 ?-Даигвианес
DR13 -3.77 dB -23.12 dB 5:29 ?-Оровела
DR13 -0.09 dB -16.65 dB 3:00 ?-Гарекахури сачидао
DR12 -4.61 dB -24.59 dB 4:32 ?-Гапринди шаво мерцхало
DR11 -9.72 dB -27.84 dB 3:37 ?-Чела
DR13 -4.99 dB -25.35 dB 3:52 ?-Цинцкаро
--------------------------------------------------------------------------------
Number of tracks: 9
Official DR value: DR12
Samplerate: 192000 Hz
Channels: 2
Bits per sample: 24
Bitrate: 5163 kbps
Codec: FLAC
================================================================================


Заменено головка AT91 на AT95
Можно опубликовать на любом сайте не спрашивая автора!
можно и видео посмотреть:
http://www.youtube.com/watch?v=Q7ZiUWfWibY
http://www.youtube.com/watch?v=-FtpFf4ZKC4
Не забывайте говорить Спасибо. Не уходите с раздачи!   
Торрент: Зарегистрирован [28 апр 2014, 10:30]
Статус:
Проверен
 
.torrent скачан: 0 раз
Хэш: 12dac7c5fd4b0e830f315771143a9dd0172d05ab
Размер: 408.01 МБ (427 830 743 байт)
   Стать Автором раздачи
   
Цитата

Вернуться в Фольклор, народная и этническая музыка (оцифровки)

Кто сейчас на конференции

Сейчас эту тему просматривают: нет зарегистрированных пользователей и гости: 1