(Folk) [LP] [24/96] Ансамбль народной еврейской песни Фейерлех - Веселей играй (запись 1981 г.) - 1983, FLAC (image+.cue)

 Статистика раздачи 
Размер: 772.18 МБ   |  Зарегистрирован: 02 янв 2014, 16:03   |   .torrent скачан: 0 раз
Сидеров: 0  [ 0 байт/сек ]     Личеров: 0  [ 0 байт/сек ]  
  
Аватара пользователя
Главный редактор
Главный редактор
 
Раздал: 90.01 ТБ
Скачал: 3.78 ТБ
Ратио: 24.248
Сообщения: 274043
Стаж: 9 лет 1 месяц 16 дней
Откуда: Санкт-Петербург

Ансамбль народной еврейской песни Фейерлех
Веселей играй

Жанр: Folk
Год выпуска: 1983
Лейбл: ВФГ "Мелодия" (С30 19595 001)
Страна-производитель: СССР
Аудио кодек: FLAC
Тип рипа: image+.cue
Формат записи: 32/192
Формат раздачи: 24/96
Продолжительность: 00:41:08
Тэги в .cue: прописаны
Источник оцифровки: автором раздачи
Код класса состояния винила: VG
Устройство воспроизведения: Электроника ЭП 017С
Головка звукоснимателя: ГЗМ – 028 (Корвет)
Предварительный усилитель: AMX - 100 (LTO®)
АЦП: Juli@
Программа-оцифровщик: AdobeAudition CS6 5.0.2.
Обработка: удаление щелчков

01.
Вино
02. Воспоминание
03. Ребе Эли Мейлех
04. Стаканчик за здоровье
05. Детские годы
06. Лишь бы только с тобой
07. Чтобы было всегда так
08. Я - портняжка!
09. Ицик женился
10. Оплакивание невесты
11. Мир

Код: Выделить всё
REM GENRE Folk
REM DATE 1983
REM COMENT Vinyl, LP, Album, ВФГ Мелодия (С30 19595 001), USSR
TITLE Веселей играй
PERFORMER Ансамбль народной еврейской песни Фейерлех
FILE "01. Веселей играй - Сторона 1.flac" WAVE
  TRACK 01 AUDIO
    TITLE "01. Вино"
    INDEX 01 00:00:00
  TRACK 02 AUDIO
    TITLE "02. Воспоминание"
    INDEX 01 02:11:27
  TRACK 03 AUDIO
    TITLE "03. Ребе Эли Мейлех"
    INDEX 01 05:39:66
  TRACK 04 AUDIO
    TITLE "04. Стаканчик за здоровье"
    INDEX 01 07:59:10
  TRACK 05 AUDIO
    TITLE "05. Детские годы"
    INDEX 01 10:01:45
  TRACK 06 AUDIO
    TITLE "06. Лишь бы только с тобой"
    INDEX 01 16:47:08
FILE "02. Веселей играй - Сторона 2.flac" WAVE
  TRACK 07 AUDIO
    TITLE "07. Чтобы было всегда так"
    INDEX 01 00:00:00
  TRACK 08 AUDIO
    TITLE "08. Я - портняжка!"
    INDEX 01 03:07:43
  TRACK 09 AUDIO
    TITLE "09. Ицик женился"
    INDEX 01 05:07:52
  TRACK 10 AUDIO
    TITLE "10. Оплакивание невесты"
    INDEX 01 08:04:67
  TRACK 11 AUDIO
    TITLE "11. Мир"
    INDEX 01 20:30:47
Не забывайте говорить Спасибо. Не уходите с раздачи!   
Торрент: Зарегистрирован [02 янв 2014, 16:03]
Статус:
Проверен
 
.torrent скачан: 0 раз
Хэш: ad4e88d8da1700bf758ef35bf3be13b74b7fe0ec
Размер: 772.18 МБ (809 693 768 байт)
   Стать Автором раздачи
   
Цитата
  • Похожие торренты
    Ответы
    Просмотры
    Последнее сообщение

Вернуться в Фольклор, народная и этническая музыка (оцифровки)

Кто сейчас на конференции

Сейчас эту тему просматривают: нет зарегистрированных пользователей и гости: 1