(World Music, African Folk Music) [LP][24/96] Olatunji! - Drums Of Passion - 1960, FLAC (tracks)

 Статистика раздачи 
Размер: 827.41 МБ   |  Зарегистрирован: 16 июн 2013, 16:11   |   .torrent скачан: 0 раз
Сидеров: 0  [ 0 байт/сек ]     Личеров: 0  [ 0 байт/сек ]  
  
Аватара пользователя
Главный редактор
Главный редактор
 
Раздал: 90.01 ТБ
Скачал: 3.78 ТБ
Ратио: 24.248
Сообщения: 274187
Стаж: 9 лет 1 месяц 18 дней
Откуда: Санкт-Петербург

Olatunji! - Drums Of Passion
#77Жанр: World Music, African Folk Music
Год выпуска: 1960
Лейбл: Columbia – CS 8210 (Original pressing)
Страна-производитель: USA
Аудио кодек: FLAC
Тип рипа: tracks
Формат записи: 24/192
Формат раздачи: 24/96
Продолжительность: 39:09
Треклист:
Side One:
A1Akiwowo (Chant To The Trainman) (03:37)
A2Oya (Primitive Fire) (05:35)
A3 Odun De! Odun De! (Happy New Year) (04:38)
A4Jin-Go-Lo-Ba (Drums Of Passion) (03:11)
Side Two:
B1 Kiyakiya (Why Do You Run Away?) (04:15)
B2 Baba Jinde (Flirtation Dance) (05:30)
B3 Oyin Momo Ado (Sweet As Honeybee) (04:54)
B4Shango (Chant To The God Of Thunder) (07:04)
Personnel:
Michael (Babatunde) Olatunji - leader, drums & percussion
with "Drums Of Passion":
Baba Hawthorne Jey, Montigo Joe (Roger Sanders), Taiwo Duval - drummers
Ida Beebee Capps, Afuavi Derby, Akwasiba Derby, Helen Haynes, Dolores Oyinka Parker, Ruby Wuraola Pryor, Barbara Gordon, Helena Walker, Louise Young - singers
Recorded in 1959
Originally released in 1960 by Columbia Records (US), LP - CL 1412/CS 8210
Бабатунде Олатунджи (или же Майкл Ли) – это один из тех музыкантов, который познакомил Западный мир с традиционными ритмами Африки, он – родоначальник небольшой музыкальной революции. С его подачи, при непосредственной поддержке Джона Колтрэйна, на Западе услышали фантастические звуки джембе (западноафриканского барабана).
"Барабаны страсти"
, выпущенный Columbia Records в 1960 году, был первым альбом африканской музыки записанным в Америке. Он разошелся тиражом больше пяти миллионов экземпляров, а композиция "Jin-Go-Lo-Ba (Drums Of Passion)", в исполнении Карлоса Сантаны, впоследствии стала международным хитом...
African Music Encyclopedia: Babatunde Olatunji
Источник оцифровки: третьим лицом
Код класса состояния винила: Неизвестно
Media:
1959 Columbia Records CS 8210
original 6-eye US stereo pressing
Matrix/deadwax info (machine stamped):
XSM48617-1F
XSM48618-1E
(side 2 stamp is a different machine style, and the "S" is backwards)
Transfer info:
Nitty Gritty Record Master
Music Hall MMF 9.1
sticky hand stylus cleaning
Grado Master Reference 1 cartridge
Graham Slee Era Gold Reflex phono preamp
Mytek Stereo192 ADC (analog to digital converter)
TT Weights center weight, cork platter mat, Blue Jean LC-1 interconnects
software used: Soundforge 10.0, ClickRepair 3.4.1 (in manual mode), Flac frontend 1.7.1
resampled to 96khz with iZotope RX 2 advanced


=======================================================================
foobar2000 1.1.12a / Dynamic Range Meter 1.1.1
--------------------------------------------------------------------------------
Analyzed: Olatunji / Drums Of Passion
--------------------------------------------------------------------------------
DR Peak RMS Duration Track
--------------------------------------------------------------------------------
DR12 -1.17 dB -15.40 dB 3:41 01-Akiwowo
DR13 -0.13 dB -16.19 dB 5:38 02-Oya
DR13 -0.13 dB -15.93 dB 4:41 03-Odun de! Odun de!
DR13 -0.12 dB -15.56 dB 3:14 04-Jin-Go-Lo-Ba
DR13 -0.14 dB -14.84 dB 4:18 05-Kiyakiya
DR12 -0.11 dB -16.12 dB 5:32 06-Baba Jinde
DR12 -0.93 dB -16.33 dB 4:57 07-Oyin Momo Ado
DR11 -0.83 dB -14.48 dB 7:07 08-Shango
--------------------------------------------------------------------------------
Number of tracks: 8
Official DR value: DR12
Samplerate: 96000 Hz
Channels: 2
Bits per sample: 24
Bitrate: 2943 kbps
Codec: FLAC
=======================================================================
Не забывайте говорить Спасибо. Не уходите с раздачи!   
Торрент: Зарегистрирован [16 июн 2013, 16:11]
Статус:
Проверен
 
.torrent скачан: 0 раз
Хэш: 4effcf118604e65486a633d918f3e9701ef6e918
Размер: 827.41 МБ (867 600 937 байт)
   Стать Автором раздачи
   
Цитата

Вернуться в Фольклор, народная и этническая музыка (оцифровки)

Кто сейчас на конференции

Сейчас эту тему просматривают: нет зарегистрированных пользователей и гости: 1