(Folk Rock, Ethereal, Celtic) [LP] [24/96] Clannad - Legend - 1984, FLAC (tracks+.cue)

 Статистика раздачи 
Размер: 628.16 МБ   |  Зарегистрирован: 09 фев 2016, 18:05   |   .torrent скачан: 0 раз
Сидеров: 0  [ 0 байт/сек ]     Личеров: 0  [ 0 байт/сек ]  
  
Аватара пользователя
Главный редактор
Главный редактор
 
Раздал: 90.01 ТБ
Скачал: 3.78 ТБ
Ратио: 24.248
Сообщения: 274898
Стаж: 9 лет 1 месяц 21 день
Откуда: Санкт-Петербург

Clannad - Legend
Жанр: Folk Rock, Ethereal, Celtic
Носитель: LP
Год выпуска: 1984
Лейбл: RCA - NL 71703
Страна-производитель: Germany
Аудио кодек: FLAC
Тип рипа: tracks+.cue
Формат записи: 24/96
Формат раздачи: 24/96
Продолжительность: 00:33:00
Треклист:
Side 1
A1 - Robin (The Hooded Man) - 2:48
A2 - Now Is Here - 3:32
A3 - Herne - 5:08
A4 - Together We - 3:28
A5 - Darkmere - 1:59
Side 2
B1 - Strange Land - 3:10
B2 - Scarlet Inside - 5:08
B3 - Lady Marian - 3:20
B4 - Battles - 1:01
B5 - Ancient Forest - 2:59
Credits
Double Bass, Synthesizer, Guitar, Vocals – Ciaran Brennan
Drums – Paul Moran
Electric Guitar – Pat Farrell
Engineer – Paul Thomas
Guitar, Flute, Tin Whistle, Keyboards, Vocals – Paul Brennan
Guitar, Vocals – Noel Duggan
Keyboards – James Delaney
Lead Vocals, Harp – Maire Brennan
Mandolin [Mandola], Guitar, Vocals – Pat Duggan
Other [Management] – David A. Kavanagh
Percussion – Frank Ricotti
Producer – Tony Clarke
Written-By – C. Brennan (tracks: A1, A5, B3 to B5), M. Brennan (tracks: B5), P. Brennan (tracks: A2 to B2, B5)
Barcode and Other Identifiers
Barcode (Text): 0 035627 170317
Label Code: LC 0316
Barcode (Scanned): 035627170317
Источник оцифровки: третьим лицом
Код класса состояния винила: NM
Устройство воспроизведения: Marantz 6170
Головка звукоснимателя: SHURE M97xE
Предварительный усилитель: Marantz 2252
АЦП: E-MU 0404
Программа-оцифровщик: Не указано
Обработка: De-click: Manual process with isotope RX3
Доп. информация:
----------------------------------------------------------------------------------------------
Analyzed folder: /Clannad - Legend (LP)
----------------------------------------------------------------------------------------------
DR Peak RMS Filename
----------------------------------------------------------------------------------------------
DR11 -2.79 dB -17.21 dB 01 Clannad - LADO 1- Robin (The Hooded Man).wav
DR12 -4.27 dB -19.82 dB 02 Clannad - Now Is Here.wav
DR13 -1.83 dB -19.64 dB 03 Clannad - Herne.wav
DR13 -1.83 dB -19.03 dB 04 Clannad - Together We.wav
DR12 -0.12 dB -15.97 dB 05 Clannad - Darkmere.wav
DR11 -3.92 dB -18.49 dB 06 Clannad - LADO 2- Strange Land.wav
DR13 -1.02 dB -17.37 dB 07 Clannad - Scarlet Inside.wav
DR12 -6.56 dB -23.06 dB 08 Clannad - Lady Marian.wav
DR11 -4.07 dB -17.73 dB 09 Clannad - Battles.wav
DR13 -1.62 dB -17.22 dB 10 Clannad - Ancient Forest.wav
----------------------------------------------------------------------------------------------
Number of files: 10
Official DR value: DR12
==============================================================================================
Не забывайте говорить Спасибо. Не уходите с раздачи!   
Торрент: Зарегистрирован [09 фев 2016, 18:05]
Статус:
Проверен
 
.torrent скачан: 0 раз
Хэш: ca1b9bd882d7e97f7d9798f535a8a5529b37bde2
Размер: 628.16 МБ (658 670 548 байт)
   Стать Автором раздачи
   
Цитата
  • Похожие торренты
    Ответы
    Просмотры
    Последнее сообщение

Вернуться в Фольклор, народная и этническая музыка (оцифровки)

Кто сейчас на конференции

Сейчас эту тему просматривают: нет зарегистрированных пользователей и гости: 1