(Folk Rock, Psychedelic Rock) [LP] [24/96] The Incredible String Band – Earthspan - 1972, FLAC (tracks+.cue)

 Статистика раздачи 
Размер: 810.57 МБ   |  Зарегистрирован: 30 мар 2017, 12:15   |   .torrent скачан: 0 раз
Сидеров: 0  [ 0 байт/сек ]     Личеров: 0  [ 0 байт/сек ]  
  
Аватара пользователя
Главный редактор
Главный редактор
 
Раздал: 90.01 ТБ
Скачал: 3.78 ТБ
Ратио: 24.248
Сообщения: 273876
Стаж: 9 лет 1 месяц 14 дней
Откуда: Санкт-Петербург

The Incredible String Band – Earthspan
Жанр: Folk Rock, Psychedelic Rock
Носитель: LP
Год выпуска: 1972
Лейбл: Reprise Records – MS 2122
Страна-производитель: US
Аудио кодек: FLAC
Тип рипа: tracks+.cue
Формат записи: 32/96
Формат раздачи: 24/96
Продолжительность: 41:29
Треклист:
A1 My Father Was A Lighthouse Keeper
A2 Antoine
A3 Restless Night
A4 Sunday Song
B1 Black Jack David
B2 Banks Of Sweet Italy
B3 The Actor
B4 Moon Hang Low
B5 Sailor And The Dancer
B6 Seagull
Источник оцифровки: saidalani
Устройство воспроизведения: Dr. Feickert Blackbird + INERTIA platter
Головка звукоснимателя: Transfiguration Axia S
Предварительный усилитель: Allnic H-3000
АЦП: Lavry Black AD11 external USB 2.0
Программа-оцифровщик: Adobe Audition CC 2015
Обработка: Izotope RX5 Advanced (manual clicks repair)
foobar2000 1.3.9 / Dynamic Range Meter 1.1.0
log date: 2016-06-22 20:03:00
--------------------------------------------------------------------------------
Analyzed: The Incredible String Band / Earthspan {Original US}
--------------------------------------------------------------------------------
DR Peak RMS Duration Track
--------------------------------------------------------------------------------
DR13 -0.54 dB -18.58 dB 4:29 ?-A1 My Father Was A Lighthouse Keeper
DR11 -4.96 dB -20.02 dB 3:59 ?-A2 Antoine
DR12 -3.31 dB -20.16 dB 3:36 ?-A3 Restless Night
DR12 -4.83 dB -20.71 dB 7:28 ?-A4 Sunday Song
DR12 -2.96 dB -18.61 dB 2:45 ?-B1 Black Jack David
DR11 -6.20 dB -21.87 dB 3:08 ?-B2 Banks Of Sweet Italy
DR12 -6.13 dB -20.92 dB 3:56 ?-B3 The Actor
DR11 -5.57 dB -20.30 dB 3:24 ?-B4 Moon Hang Low
DR11 -5.22 dB -19.97 dB 2:40 ?-B5 Sailor And The Dancer
DR10 -5.28 dB -21.05 dB 6:05 ?-B6 Seagull
--------------------------------------------------------------------------------
Number of tracks: 10
Official DR value: DR12
Samplerate: 96000 Hz
Channels: 2
Bits per sample: 24
Bitrate: 2655 kbps
Codec: FLAC
================================================================================
Backing Vocals – Likky (tracks: A3, B5, B6)
Bass – Mike Heron (2) (tracks: A1, A3, B3, B4)
Drums – Dave Mattacks (tracks: A1, A3, B4)
Engineer – Roger Mayer
Flute – Robin Williamson (tracks: A4, B3, B6)
Guitar – Robin Williamson (tracks: A3, B2 to B6)
Photography, Artwork By – Mitch Walker
Piano – Mike Heron (2) (tracks: A1, A4, B3)
Producer – Mike Heron (2) (tracks: A1 to B1, B4, B6), Robin Williamson (tracks: A3, B2 to B5)
Songwriter – Mike Heron (2) (tracks: A2, B1, B6), Robin Williamson (tracks: A3, B2, B4)
Viola, Violin, Vocals – Stuart Gordon (tracks: A1, A2, B1)
Vocals – Malcolm Le Maistre (tracks: A4, B2, B5), Robin Williamson (tracks: B1, B2, B4)
#7#77#77
Не забывайте говорить Спасибо. Не уходите с раздачи!   
Торрент: Зарегистрирован [30 мар 2017, 12:15]
Статус:
Проверен
 
.torrent скачан: 0 раз
Хэш: 33260fdd5899e5a39bcd2b6a6017b08328c1b828
Размер: 810.57 МБ (849 949 039 байт)
   Стать Автором раздачи
   
Цитата

Вернуться в Фольклор, народная и этническая музыка (оцифровки)

Кто сейчас на конференции

Сейчас эту тему просматривают: нет зарегистрированных пользователей и гости: 1