(Indian Classical, Raga) [LP] [24/48] Sharan Rani - Musique Classique Indienne - 1967, FLAC (image+.cue)

 Статистика раздачи 
Размер: 416.82 МБ   |  Зарегистрирован: 16 май 2019, 10:29   |   .torrent скачан: 0 раз
Сидеров: 0  [ 0 байт/сек ]     Личеров: 0  [ 0 байт/сек ]  
  
Аватара пользователя
Главный редактор
Главный редактор
 
Раздал: 90.01 ТБ
Скачал: 3.78 ТБ
Ратио: 24.248
Сообщения: 274187
Стаж: 9 лет 1 месяц 18 дней
Откуда: Санкт-Петербург

Sharan Rani - Musique Classique Indienne
Жанр: Indian Classical, Raga
Носитель: LP
Год выпуска: 1967
Лейбл: Disques Vogue CLVLX. 119
Страна-производитель: Франция
Аудио кодек: FLAC
Тип рипа: image+.cue
Формат записи: 24/48
Формат раздачи: 24/48
Продолжительность: 00:38:30
Треклист:
01-Raga Yaman Kalyan
02-Solo De Tabla
03-Raga Bhairavi
Источник оцифровки: автором раздачи
Код класса состояния винила: VG
Устройство воспроизведения: Sony PS-LX250H
Головка звукоснимателя: Sony [неизвестный]
Предварительный усилитель: Yamaha A-500
АЦП: Lexicon Alpha
Программа-оцифровщик: Audacity [Ubuntu]
Обработка:Удаление щелчков



Доп. информация:
REM GENRE "Classical Indian"
REM DATE "1967"
PERFORMER "Sharan Rani"
TITLE "Musique Classique Indienne"
REM COMMENT "From LP"
REM COUNTRY "France"
FILE "Sharan Rani ‎– Musique Classique Indienne.flac" WAVE
REM LABEL "Disques Vogue"
REM LABELNUMBER "CLVLX. 119"
TRACK 01 AUDIO
TITLE "Raga Yaman Kalyan"
PERFORMER "Sharan Rani"
INDEX 01 00:00:00
TRACK 02 AUDIO
TITLE "Solo De Tabla"
PERFORMER "Sharan Rani"
INDEX 01 15:02:00
TRACK 03 AUDIO
TITLE "Raga Bhairavi"
PERFORMER "Sharan Rani"
INDEX 01 19:52:04
Код: Выделить всё
foobar2000 1.4.3 / Dynamic Range Meter 1.1.1
log date: 2019-05-16 11:20:18
--------------------------------------------------------------------------------
Analyzed: Sharan Rani / Musique Classique Indienne
--------------------------------------------------------------------------------
DR         Peak         RMS     Duration Track
--------------------------------------------------------------------------------
DR17      -0.04 dB   -22.87 dB     15:02 01-Raga Yaman Kalyan
DR17       0.00 dB   -20.50 dB      4:50 02-Solo De Tabla
DR17       0.00 dB   -21.26 dB     18:38 03-Raga Bhairavi
--------------------------------------------------------------------------------
Number of tracks:  3
Official DR value: DR17
Samplerate:        48000 Hz
Channels:          2
Bits per sample:   24
Bitrate:           1487 kbps
Codec:             FLAC
================================================================================
Не забывайте говорить Спасибо. Не уходите с раздачи!   
Торрент: Зарегистрирован [16 май 2019, 10:29]
Статус:
Проверен
 
.torrent скачан: 0 раз
Хэш: d67ea1ffffe4cadc245d89c291301ca41a4051ec
Размер: 416.82 МБ (437 068 880 байт)
   Стать Автором раздачи
   
Цитата
  • Похожие торренты
    Ответы
    Просмотры
    Последнее сообщение

Вернуться в Фольклор, народная и этническая музыка (оцифровки)

Кто сейчас на конференции

Сейчас эту тему просматривают: нет зарегистрированных пользователей и гости: 1