(Country)[LP] [24/96] Taylor Swift - Red (2 LP) - 2012, FLAC (tracks)

 Статистика раздачи 
Размер: 1.24 ГБ   |  Зарегистрирован: 25 апр 2013, 15:46   |   .torrent скачан: 0 раз
Сидеров: 0  [ 0 байт/сек ]     Личеров: 0  [ 0 байт/сек ]  
  
Аватара пользователя
Главный редактор
Главный редактор
 
Раздал: 90.01 ТБ
Скачал: 3.78 ТБ
Ратио: 24.248
Сообщения: 274856
Стаж: 9 лет 1 месяц 20 дней
Откуда: Санкт-Петербург

Taylor Swift - RED
Жанр: Country
Год выпуска: 2012
Лейбл: Big Machine Records
Страна-производитель: USA
Аудио кодек: FLAC
Тип рипа: tracks
Формат записи: 24/96
Формат раздачи: 24/96
Продолжительность: 1:05:15
Источник оцифровки: третьим лицом
Код класса состояния винила: VG+
Устройство воспроизведения: Rega P2
Головка звукоснимателя: Rega Bias 2 Cartridge
Предварительный усилитель: TCC TC-760LC
АЦП: e-mu 0404USB
Программа-оцифровщик: Audacity 2.0.3-alpha-Nov 7 2012
Обработка: -
A1-State Of Grace
A2-Red
A3-Treacherous
A4-I Knew You Were Trouble
B1-All Too Well
B2-22
B3-I Almost Do
B4-We Are Never Ever Getting Back Together
C1-Stay Stay Stay
C2-The Last Time
C3-Holy Ground
C4-Sad Beautiful Tragic
D1-The Lucky One
D2-Everything Has Changed
D3-Starlight
D4-Begin Again
Код:
Код: Выделить всё
PERFORMER "Taylor Swift"
TITLE "RED"
REM GENRE Country
REM DATE 2012
FILE "A1-State Of Grace.flac" WAVE
  TRACK 01 AUDIO
    TITLE "State Of Grace"
    PERFORMER "Taylor Swift"
    INDEX 01 00:00:00
FILE "A2-Red.flac" WAVE
  TRACK 01 AUDIO
    TITLE "Red"
    PERFORMER "Taylor Swift"
    INDEX 01 00:00:00
FILE "A3-Treacherous.flac" WAVE
  TRACK 01 AUDIO
    TITLE "Treacherous"
    PERFORMER "Taylor Swift"
    INDEX 01 00:00:00
FILE "A4-I Knew You Were Trouble.flac" WAVE
  TRACK 01 AUDIO
    TITLE "I Knew You Were Trouble"
    PERFORMER "Taylor Swift"
    INDEX 01 00:00:00
FILE "B1-All Too Well.flac" WAVE
  TRACK 01 AUDIO
    TITLE "All Too Well"
    PERFORMER "Taylor Swift"
    INDEX 01 00:00:00
FILE "B2-22.flac" WAVE
  TRACK 01 AUDIO
    TITLE "22"
    PERFORMER "Taylor Swift"
    INDEX 01 00:00:00
FILE "B3-I Almost Do.flac" WAVE
  TRACK 01 AUDIO
    TITLE "I Almost Do"
    PERFORMER "Taylor Swift"
    INDEX 01 00:00:00
FILE "B4-We Are Never Ever Getting Back Together.flac" WAVE
  TRACK 01 AUDIO
    TITLE "We Are Never Ever Getting Back Together"
    PERFORMER "Taylor Swift"
    INDEX 01 00:00:00
FILE "C1-Stay Stay Stay.flac" WAVE
  TRACK 01 AUDIO
    TITLE "Stay Stay Stay"
    PERFORMER "Taylor Swift"
    INDEX 01 00:00:00
FILE "C2-The Last Time.flac" WAVE
  TRACK 01 AUDIO
    TITLE "The Last Time"
    PERFORMER "Taylor Swift"
    INDEX 01 00:00:00
FILE "C3-Holy Ground.flac" WAVE
  TRACK 01 AUDIO
    TITLE "Holy Ground"
    PERFORMER "Taylor Swift"
    INDEX 01 00:00:00
FILE "C4-Sad Beautiful Tragic.flac" WAVE
  TRACK 01 AUDIO
    TITLE "Sad Beautiful Tragic"
    PERFORMER "Taylor Swift"
    INDEX 01 00:00:00
FILE "D1-The Lucky One.flac" WAVE
  TRACK 01 AUDIO
    TITLE "The Lucky One"
    PERFORMER "Taylor Swift"
    INDEX 01 00:00:00
FILE "D2-Everything Has Changed.flac" WAVE
  TRACK 01 AUDIO
    TITLE "Everything Has Changed"
    PERFORMER "Taylor Swift"
    INDEX 01 00:00:00
FILE "D3-Starlight.flac" WAVE
  TRACK 01 AUDIO
    TITLE "Starlight"
    PERFORMER "Taylor Swift"
    INDEX 01 00:00:00
FILE "D4-Begin Again.flac" WAVE
  TRACK 01 AUDIO
    TITLE "Begin Again"
    PERFORMER "Taylor Swift"
    INDEX 01 00:00:00

Не забывайте говорить Спасибо. Не уходите с раздачи!   
Торрент: Зарегистрирован [25 апр 2013, 15:46]
Статус:
Проверен
 
.torrent скачан: 0 раз
Хэш: 73f557df87e9d0345df839057d7cafa1504ecb04
Размер: 1.24 ГБ (1 335 324 502 байт)
   Стать Автором раздачи
   
Цитата
  • Похожие торренты
    Ответы
    Просмотры
    Последнее сообщение

Вернуться в Фольклор, народная и этническая музыка (оцифровки)

Кто сейчас на конференции

Сейчас эту тему просматривают: нет зарегистрированных пользователей и гости: 1