(Folk, World, Country, Celtic) [LP] [24/96 - 24/192] Loreena McKennitt – 9 LP's - 1985 - 2014, FLAC (tracks+.cue

 Статистика раздачи 
Размер: 12.05 ГБ   |  Зарегистрирован: 16 июн 2017, 17:19   |   .torrent скачан: 0 раз
Сидеров: 0  [ 0 байт/сек ]     Личеров: 0  [ 0 байт/сек ]  
  
Аватара пользователя
Главный редактор
Главный редактор
Я на сайте
 
Раздал: 90.01 ТБ
Скачал: 3.78 ТБ
Ратио: 24.248
Сообщения: 273922
Стаж: 9 лет 1 месяц 15 дней
Откуда: Санкт-Петербург

Loreena McKennitt – 9 LP's
Жанр: Folk, World, Country, Celtic
Носитель: LP
Год выпуска: 1985 - 2014
Лейбл: Quinlan Road
Страна-производитель: Canada, EU
Аудио кодек: FLAC
Тип рипа: tracks+.cue
Формат записи: 24/96 - 32/192
Формат раздачи: 24/96 - 24/192
Код класса состояния винила: Mint & Siled
Продолжительность: 9:05:21
Источник оцифровки: saidalani, Arend, Rockmaninov
#77Лейбл: Quinlan Road – QRLP101
Страна-производитель: Canada
Формат записи: 24/96
Формат раздачи: 24/96
Продолжительность: 36:14
Треклист:
A1. Blacksmith
A2. She Moved Through The Fair
A3. Stolen Child
A4. The Lark In The Clear Air
A5. Carrighfergus
-
B1. Kellswater
B2. Banks Of Claudy
B3. Come By The Hills
B4. Lullaby
Источник оцифровки: Arend
Устройство воспроизведения: Linn LP12 + Linn Ekos 2 Tone-arm
Головка звукоснимателя: van den Hul – The DDT II Special Cartridge
Предварительный усилитель: Linn Linto Phono-Preamp
АЦП: Benchmark ADC1
Программа-оцифровщик: Wavelab 6
foobar2000 1.3.20 / Dynamic Range Meter 1.1.1
log date: 2019-03-19 13:06:26
--------------------------------------------------------------------------------
Analyzed: Loreena McKennitt / Elemental
--------------------------------------------------------------------------------
DR Peak RMS Duration Track
--------------------------------------------------------------------------------
DR10 -4.38 dB -16.43 dB 3:22 ?-01 Blacksmith
DR9 -5.74 dB -19.81 dB 4:01 ?-02 She Moved Through The Fair
DR9 -3.81 dB -16.92 dB 5:04 ?-03 Stolen Child
DR11 -5.20 dB -20.59 dB 2:07 ?-04 The Lark In The Clear Air
DR11 -5.06 dB -19.88 dB 3:25 ?-05 Carrighfergus
DR9 -4.52 dB -17.27 dB 5:19 ?-06 Kellswater
DR13 -5.61 dB -23.70 dB 5:30 ?-07 Banks Of Claudy
DR10 -5.39 dB -19.15 dB 3:06 ?-08 Come By The Hills
DR10 -2.82 dB -18.31 dB 4:22 ?-09 Lullaby
--------------------------------------------------------------------------------
Number of tracks: 9
Official DR value: DR10
Samplerate: 96000 Hz
Channels: 2
Bits per sample: 24
Bitrate: 2797 kbps
Codec: FLAC
================================================================================
Vocals, Harp, Accordion, Guitar, Synthesizer – Loreena McKennitt
Acoustic Bass – George Greer
Cello – Pat Mullin
Guitar, Vocals – Cedric Smith
Voice Actor [Recitation] – Douglas Campbell
Sounds [Sound Effects] – John Hazen
#7#77
#77Лейбл: Quinlan Road – QRLP104
Страна-производитель: EU
Формат записи: 24/96
Формат раздачи: 24/96
Продолжительность: 49:30
Треклист:
A1. All Souls Night
A2. Bonny Portmore
A3. Between the Shadows
A4. The Lady of Shalott
B1. Greensleeves
B2. Tango to Evora
B3. Courtyard Lullaby
B4. The Old Ways
B5. Cymbeline
Источник оцифровки: Arend
Устройство воспроизведения: Linn LP12 + Linn Ekos 2 Tone-arm
Головка звукоснимателя: van den Hul – The DDT II Special Cartridge
Предварительный усилитель: Linn Linto Phono-Preamp
АЦП: Benchmark ADC1
Программа-оцифровщик: Wavelab 6
foobar2000 1.3.16 / Dynamic Range Meter 1.1.1
log date: 2017-11-15 10:31:45
--------------------------------------------------------------------------------
Analyzed: Loreena McKennitt / The Visit
--------------------------------------------------------------------------------
DR Peak RMS Duration Track
--------------------------------------------------------------------------------
DR13 -1.26 dB -17.94 dB 5:08 01-01 All Souls Night
DR12 -2.14 dB -19.46 dB 4:25 02-02 Bonny Portmore
DR14 -2.34 dB -18.72 dB 3:43 03-03 Between The Shadows
DR14 -2.82 dB -21.11 dB 11:38 04-04 The Lady Of Shalott
DR13 -4.18 dB -21.61 dB 4:28 05-05 Greensleeves
DR12 -2.96 dB -18.17 dB 4:16 06-06 Tango To Evora
DR13 -4.28 dB -22.65 dB 4:56 07-07 Courtyard Lullaby
DR13 -1.01 dB -19.20 dB 5:47 08-08 The Old Ways
DR11 -4.18 dB -19.54 dB 5:09 09-09 Cymbeline
--------------------------------------------------------------------------------
Number of tracks: 9
Official DR value: DR13
Samplerate: 96000 Hz
Channels: 2
Bits per sample: 24
Bitrate: 2438 kbps
Codec: FLAC
================================================================================
Loreena McKennitt – Synthesizer, Piano, Harp, Accordion, Bodhran, Vocals
Anne Bourne – Cello
Al Cross –Drums
Tom Hazlett – Bass
Brian Hughes – Balalaika, Electric & Acoustic Guitar
Patrick Hutchinson – Uillean Pipes
George Koller – Bass, Cello, Mad Fiddle, Tamboura, Sitar
Rick Lazar – Percussion, Udu Drum
Hugh Marsh – Fiddle
#7#77
#77Лейбл: Quinlan Road – QRLP105
Страна-производитель: EU
Формат записи: 24/96
Формат раздачи: 24/96
Продолжительность: 52:57
Треклист:
A1. The Mystic’s Dream
A2. The Bonny Swans
A3. The Dark Night Of The Soul
A4. Marrakesh Night Market
B1. Full Circle
B2. Santiago
B3. Ce He Mise Le Ulaingt-The Two Trees
B4. Prospero’s Speech
Источник оцифровки: Arend
Устройство воспроизведения: Linn LP12 + Linn Ekos 2 Tone-arm
Головка звукоснимателя: van den Hul – The DDT II Special Cartridge
Предварительный усилитель: Linn Linto Phono-Preamp
АЦП: Benchmark ADC1
Программа-оцифровщик: Wavelab 6
foobar2000 1.3.16 / Dynamic Range Meter 1.1.1
log date: 2017-11-15 10:35:49
--------------------------------------------------------------------------------
Analyzed: Loreena McKennitt / The Mask And Mirror
--------------------------------------------------------------------------------
DR Peak RMS Duration Track
--------------------------------------------------------------------------------
DR11 -2.08 dB -17.43 dB 7:42 01-01 The Mystic's Dream
DR13 -0.81 dB -16.75 dB 7:20 02-02 The Bonny Swans
DR12 -2.53 dB -17.71 dB 6:50 03-03 The Dark Night Of The Soul
DR12 -2.45 dB -17.63 dB 6:30 04-04 Marrakesh Night Market
DR12 -4.18 dB -20.25 dB 6:00 05-05 Full Circle
DR11 -2.43 dB -16.14 dB 6:01 06-06 Santiago
DR11 -3.49 dB -19.36 dB 9:10 07-07 Cé Hé Mise Le Ulaingt-The Two Trees
DR12 -5.34 dB -22.25 dB 3:25 08-08 Prospero's Speech
--------------------------------------------------------------------------------
Number of tracks: 8
Official DR value: DR12
Samplerate: 96000 Hz
Channels: 2
Bits per sample: 24
Bitrate: 2592 kbps
Codec: FLAC
================================================================================
Loreena McKennitt: Vocals, harp, accordion, dumbeg, piano, keyboards, synthesizer, organ pipes
Brian Hughes: Electric and acoustic guitars, oud, balalaika, electric sitar (“The Mystic’s Dream”, “The Bonny Swans”, “The Dark Night Of The Soul”, “Marrakesh Night Market”, “Santiago”)
Rick Lazar: Percussion, drums, dumbek, udu drum (“The Mystic’s Dream”, “The Bonny Swans”, “Marrakesh Night Market”, “Santiago”)
George Koller: Bass, tamboura, cello, esraj (“The Mystic’s Dream”, “The Bonny Swans”, “The Dark Night Of The Soul”, “Marrakesh Night Market”, “Full Circle”, “Santiago”, “Ce He Mise Le Ulaingt?/The Two Trees”, “Prospero’s Speech”)
Ravi Naimpally: Tabla (“The Mystic’s Dream”)
Abraham Tawfik: Nai, oud (“The Mystic’s Dream”)
Anne Bourne: Cello, backing vocals (“The Mystic’s Dream”, “The Bonny Swans”)
Patrick Hutchinson: Uillean pipes (“The Mystic’s Dream”, “Ce He Mise Le Ulaingt?/The Two Trees”)
Victoria Scholars Choir: Vocals (“The Mystic’s Dream”)
Donal Lunny: Bouzouki, bodhran (“The Bonny Swans”, “Santiago”)
Hugh Marsh: Fiddle (“The Bonny Swans”, “The Dark Night Of The Soul”, “Marrakesh Night Market”, “Santiago”)
Al Cross: Drums (“Marrakesh Night Market”)
Nigel Eaton: Hurdy-gurdy (“Santiago”)
Ofra Harnoy: Cello (“Ce He Mise Le Ulaingt?/The Two Trees”)
#7#77
#77Лейбл: Quinlan Road – QRLP107
Страна-производитель: EU
Формат записи: 24/96
Формат раздачи: 24/96
Продолжительность: 53:21
Треклист:
A1 Prologue
A2 The Mummers' Dance
A3 Skellig
A4 Marco Polo
B1 The Highwayman
B2 La Serenissima
B3 Night Ride Across The Caucasus
B4 Dante's Prayer
Источник оцифровки: Arend
Устройство воспроизведения: Linn LP12 + Linn Ekos 2 Tone-arm
Головка звукоснимателя: van den Hul – The DDT II Special Cartridge
Предварительный усилитель: Linn Linto Phono-Preamp
АЦП: Benchmark ADC1
Программа-оцифровщик: Wavelab 6
foobar2000 1.3.16 / Dynamic Range Meter 1.1.1
log date: 2017-12-03 10:38:45
--------------------------------------------------------------------------------
Analyzed: Loreena McKennitt / The Book Of Secrets
--------------------------------------------------------------------------------
DR Peak RMS Duration Track
--------------------------------------------------------------------------------
DR11 -7.21 dB -20.46 dB 4:24 01-01 Prologue
DR12 -3.12 dB -17.69 dB 6:09 02-02 The Mummers' Dance
DR12 -4.17 dB -19.12 dB 6:11 03-03 Skellig
DR13 -1.32 dB -17.04 dB 5:18 04-04 Marco Polo
DR10 -3.73 dB -17.58 dB 10:23 05-05 The Highwayman
DR13 -4.56 dB -21.92 dB 5:10 06-06 La Serenissima
DR10 -3.70 dB -15.83 dB 8:35 07-07 Night Ride Across The Caucasus
DR12 -5.92 dB -22.27 dB 7:12 08-08 Dante's Prayer
--------------------------------------------------------------------------------
Number of tracks: 8
Official DR value: DR12
Samplerate: 96000 Hz
Channels: 2
Bits per sample: 24
Bitrate: 2624 kbps
Codec: FLAC
================================================================================
Acoustic Bass – Danny Thompson (tracks: 2 to 5, 7, 8)
Keyboards, Producer – Loreena McKennitt
Mandolin [Mandocello] – Martin Jenkins (4) (tracks: 3, 4, 5, 7)
Viola – Donald Quan (tracks: 2, 4, 5, 6, 8)
Violin – Hugh Marsh (tracks: 2 to 8)
Vocals – Loreena McKennitt (tracks: 1 to 5, 7, 8)
Mastered By – Bob Ludwig
#7#77#77
#77Лейбл: Quinlan Road – QRLP109
Страна-производитель: Canada
Формат записи: 24/96
Формат раздачи: 24/96
Продолжительность: 54:38
Треклист:
A1. Incantation
A2. The Gates of Istanbul
A3. Caravanserai
A4. The English Ladye And The Night
B1. Kecharitomene
B2. Penelope's Song
B3. Sacred Shabbat
B4. Beneath A Phrygian Sky
B5. Never-Ending Road (Amhran Duit)
Источник оцифровки: Arend
Устройство воспроизведения: Linn LP12 w + Linn Ekos 2 Tonearm
Головка звукоснимателя: van den Hul – The DDT II Special Cartridge
Предварительный усилитель: Linn Linto
АЦП: Benchmark ADC1
Программа-оцифровщик: Wavelab 6
foobar2000 1.3.16 / Dynamic Range Meter 1.1.1
log date: 2018-04-22 13:15:04
--------------------------------------------------------------------------------
Analyzed: Loreena McKennitt / An Ancient Muse
--------------------------------------------------------------------------------
DR Peak RMS Duration Track
--------------------------------------------------------------------------------
DR11 -4.51 dB -19.06 dB 2:39 01-01 Incantation
DR12 -1.64 dB -16.93 dB 6:58 02-02 The Gates Of Istanbul
DR12 -1.47 dB -17.73 dB 7:35 03-03 Caravansarai
DR13 -5.19 dB -20.95 dB 6:53 04-04 The English Ladye And The Knight
DR13 -2.42 dB -19.25 dB 6:33 05-05 Kecharitomene
DR10 -3.70 dB -18.26 dB 4:24 06-06 Penelope's Song
DR13 -4.59 dB -20.96 dB 4:01 07-07 Sacred Shabbat
DR11 -2.03 dB -16.08 dB 9:28 08-08 Beneath A Phrygian Sky
DR11 -5.36 dB -19.49 dB 6:08 09-09 Never Ending Road
--------------------------------------------------------------------------------
Number of tracks: 9
Official DR value: DR12
Samplerate: 96000 Hz
Channels: 2
Bits per sample: 24
Bitrate: 2680 kbps
Codec: FLAC
================================================================================
Mastered By – Bob Ludwig
Producer, Written-By, Arranged By, Liner Notes – Loreena McKennitt
#7#77#7#77#7#77#7
#77Лейбл: Quinlan Road – QRLP109
Страна-производитель: Canada
Формат записи: 32/192
Формат раздачи: 24/192
Продолжительность: 54:25
Треклист:
A1. Incantation
A2. The Gates of Istanbul
A3. Caravanserai
A4. The English Ladye And The Night
B1. Kecharitomene
B2. Penelope's Song
B3. Sacred Shabbat
B4. Beneath A Phrygian Sky
B5. Never-Ending Road (Amhran Duit)
Источник оцифровки: saidalani
Устройство воспроизведения: Dr. Feickert Blackbird + INERTIA platter + CLEARAUDIO Tangential TT3
Головка звукоснимателя: CLEARAUDIO TITANIUM V2
Предварительный усилитель: Allnic H-3000
АЦП: RME Fireface UC
Программа-оцифровщик: Adobe Audition CC 2015
Обработка: manual clicks repair
foobar2000 1.3.9 / Dynamic Range Meter 1.1.1
log date: 2017-06-15 19:44:55
--------------------------------------------------------------------------------
Analyzed: Loreena McKennitt / An Ancient Muse {CAN}
--------------------------------------------------------------------------------
DR Peak RMS Duration Track
--------------------------------------------------------------------------------
DR11 -5.67 dB -20.79 dB 2:36 ?-A1 Incantation
DR12 -2.52 dB -18.58 dB 6:59 ?-A2 The Gates of Istanbul
DR12 -2.98 dB -19.26 dB 7:35 ?-A3 Caravanserai
DR13 -6.20 dB -22.29 dB 6:47 ?-A4 The English Ladye And The Night
DR13 -4.30 dB -21.22 dB 6:36 ?-B1 Kecharitomene
DR11 -5.04 dB -20.02 dB 4:22 ?-B2 Penelope's Song
DR13 -6.24 dB -22.65 dB 4:00 ?-B3 Sacred Shabbat
DR11 -4.03 dB -18.07 dB 9:31 ?-B4 Beneath A Phrygian Sky
DR11 -6.74 dB -21.16 dB 5:59 ?-B5 Never-Ending Road (Amhrán Duit)
--------------------------------------------------------------------------------
Number of tracks: 9
Official DR value: DR12
Samplerate: 192000 Hz
Channels: 2
Bits per sample: 24
Bitrate: 4960 kbps
Codec: FLAC
================================================================================
Mastered By – Bob Ludwig
Producer, Written-By, Arranged By, Liner Notes – Loreena McKennitt
#7#77#7#77#7#77#7
#77Лейбл: Quinlan Road – QRLP110
Страна-производитель: US
Формат записи: 24/96
Формат раздачи: 24/96
Продолжительность: 1:34:32
Треклист:
A1 The Mystic’s Dream
A2 She Moved Through The Fair
A3 Stolen Child
A4 The Mummers’ Dance
A5 Penelope’s Song
B1 Marco Polo
B2 The Bonny Swans
B3 Dante’s Prayer
B4 Caranvaserai
B5 Bonny Portmore
50:37
C1 Santiago
C2 Raglan Road
C3 All Souls Night
C4 The Lady Of Shalott
D1 The Old Ways
D2 Never-Ending Road
D3 Huron ‘Beltane’ Fire Dance
D4 Cymbeline
43:55
Источник оцифровки: Rockmaninov
Устройство воспроизведения: Vintage (1982) Yamaha PX-3
Головка звукоснимателя: Sumiko Black Bird
Предварительный усилитель: Pro-Ject Phono Box RS
АЦП: RME Fireface UC
Программа-оцифровщик: Adobe Audition CS 5.5
foobar2000 1.3.16 / Dynamic Range Meter 1.1.1
log date: 2018-04-22 13:16:18
--------------------------------------------------------------------------------
Analyzed: Loreena McKennitt / Nights From The Alhambra
--------------------------------------------------------------------------------
DR Peak RMS Duration Track
--------------------------------------------------------------------------------
DR11 -0.56 dB -14.36 dB 6:39 01-A1 The Mystic's Dream
DR13 -3.35 dB -20.16 dB 5:06 02-A2 She Moved Through The Fair
DR11 -2.61 dB -16.67 dB 4:16 03-A3 Stolen Child
DR11 -0.55 dB -14.19 dB 4:28 04-A4 The Mummers' Dance
DR11 -2.60 dB -18.59 dB 4:28 05-A5 Penelope's Song
DR11 -0.84 dB -14.37 dB 4:52 06-B1 Marco Polo
DR11 -0.22 dB -14.20 dB 4:45 07-B2 The Bonny Swans
DR12 -1.98 dB -19.97 dB 5:08 08-B3 Dante's Prayer
DR11 -0.57 dB -14.78 dB 6:48 09-B4 Caranvaserai
DR11 -3.18 dB -19.90 dB 4:07 10-B5 Bonny Portmore
DR13 -0.46 dB -15.40 dB 5:37 11-C1 Santiago
DR11 -3.00 dB -18.92 dB 5:41 12-C2 Raglan Road
DR12 -0.95 dB -16.10 dB 5:29 13-C3 All Souls Night
DR12 -2.88 dB -19.51 dB 5:03 14-C4 The Lady Of Shalott
DR11 -1.92 dB -16.49 dB 5:14 15-D1 The Old Ways
DR13 -3.53 dB -20.77 dB 6:29 16-D2 Never-Ending Road
DR11 -0.41 dB -14.62 dB 5:30 17-D3 Huron 'Beltane' Fire Dance
DR13 -4.00 dB -24.34 dB 4:52 18-D4 Cymbeline
--------------------------------------------------------------------------------
Number of tracks: 18
Official DR value: DR11
Samplerate: 96000 Hz
Channels: 2
Bits per sample: 24
Bitrate: 2665 kbps
Codec: FLAC
================================================================================
Bass, Double Bass [Acoustic Bass] – Tim Landers
Cello – Caroline Lavelle
Drums, Percussion – Tal Bergmann
Guitar, Acoustic Guitar, Bouzouki [Celtic], Oud – Brian Hughes
Hurdy Gurdy – Nigel Eaton
Lyre – Sokratis Sinopoulos
Mastered By – Bob Ludwig
Other [Kanoun] – Panos Dimitrakopoulos
Oud – Haig Yazdjian
Percussion – Rick Lazar
Percussion, Bodhran, Bagpipes [Uilleann] – Steafan Hannigan
Viola, Keyboards, Tabla – Donald Quan
Violin – Hugh Marsh
Vocals, Accordion, Harp, Piano – Loreena McKennitt
#7#77#7#77#7#77#77
#77Лейбл: Quinlan Road – QRLP114
Страна-производитель: Canada
Формат записи: 24/96
Формат раздачи: 24/96
Продолжительность: 45:13
Треклист:
A1. As I Roved Out
A2. On A Bright May Morning
A3. Brian Boru's March
A4. Down By The Sally Gardens
A5. The Star Of The County Down
-
B1. The Wind That Shakes The Barley
B2. The Death Of Queen Jane
B3. The Emigration Tunes
B4. The Parting Glass
Источник оцифровки: Arend
Устройство воспроизведения: Linn LP12 + Linn Ekos 2 Tone-arm
Головка звукоснимателя: van den Hul – The DDT II Special Cartridge
Предварительный усилитель: Linn Linto Phono-Preamp
АЦП: Benchmark ADC1
Программа-оцифровщик: Wavelab 6
foobar2000 1.3.20 / Dynamic Range Meter 1.1.1
log date: 2019-03-19 13:20:51
--------------------------------------------------------------------------------
Analyzed: Loreena McKennitt / The Wind That Shakes The Barley
--------------------------------------------------------------------------------
DR Peak RMS Duration Track
--------------------------------------------------------------------------------
DR9 -1.87 dB -12.28 dB 4:56 01-01 As I Roved Out
DR10 -3.85 dB -17.81 dB 5:08 02-02 On A Bright May Morning
DR10 -2.90 dB -15.86 dB 3:52 03-03 Brian Boru's March
DR9 -3.08 dB -14.77 dB 5:40 04-04 Down By The Sally Gardens
DR8 -2.22 dB -12.92 dB 3:35 05-05 The Star Of The County Down
DR10 -3.59 dB -17.63 dB 5:59 06-06 The Wind That Shakes The Barley
DR9 -3.96 dB -16.88 dB 6:03 07-07 The Death Of Queen Jane
DR9 -3.33 dB -15.41 dB 4:45 08-08 The Emigration Tunes
DR11 -6.82 dB -22.74 dB 5:14 09-09 The Parting Glass
--------------------------------------------------------------------------------
Number of tracks: 9
Official DR value: DR9
Samplerate: 96000 Hz
Channels: 2
Bits per sample: 24
Bitrate: 2636 kbps
Codec: FLAC
================================================================================
Loreena McKennitt – Vocals, Keyboards, Accordion and Harp
Brian Hughes – Irish bouzouki, Drone, and Electric & Acoustic guitar
Hugh Marsh – Violin
Caroline Lavelle – Cello
Ben Grossman – Hurdy-gurdy Drone, Bodhran, Frame Drums, Triangle, Bells, and Shaker
Ian Harper – Uilleann pipes and Whistle
Tony McManus – Acoustic guitar
Jeff Bird – Mandola, Mandolin and Acoustic bass
Pat Simmonds – Acoustic guitar, Button accordion
Andrew Collins – Mandolin, Mandocello
Brian Taheny – Mandolin
Chris Gartner – Bass
Andrew Downing – Acoustic bass
Jason Fowler – Acoustic guitar
#7#77
#77Лейбл: Quinlan Road – QRLP115
Страна-производитель: Canada
Формат записи: 24/96
Формат раздачи: 24/96
Продолжительность: 44:38
Треклист:
A1. Bonny Portmore
A2. Down By The Sally Gardens
A3. The Wind That Shakes The Barley
A4. Between The Shadows
A5. The Lady Of Shalott
-
B1. Stolen Child
B2. Penelope's Song
B3. The Bonny Swans
B4. The Parting Glass
Источник оцифровки: Arend
Устройство воспроизведения: Linn LP12 + Linn Ekos 2 Tone-arm
Головка звукоснимателя: van den Hul – The DDT II Special Cartridge
Предварительный усилитель: Linn Linto Phono-Preamp
АЦП: Benchmark ADC1
Программа-оцифровщик: Wavelab 6
foobar2000 1.3.20 / Dynamic Range Meter 1.1.1
log date: 2019-03-19 13:54:54
--------------------------------------------------------------------------------
Analyzed: Loreena McKennitt / Troubadours On The Rhine
--------------------------------------------------------------------------------
DR Peak RMS Duration Track
--------------------------------------------------------------------------------
DR10 -3.12 dB -16.37 dB 3:46 01-01 Bonny Portmore
DR10 -4.24 dB -18.15 dB 4:22 02-02 Down By The Sally Gardens
DR12 -3.73 dB -19.73 dB 4:46 03-03 The Wind That Shakes The Barley
DR11 -2.63 dB -16.96 dB 4:26 04-04 Between The Shadows
DR12 -3.42 dB -18.71 dB 7:00 05-05 The Lady Of Shalott
DR10 -4.08 dB -17.13 dB 5:23 06-06 Stolen Child
DR11 -4.01 dB -18.75 dB 3:53 07-07 Penelope's Song
DR11 -3.63 dB -17.36 dB 5:52 08-08 The Bonny Swans
DR12 -4.38 dB -20.77 dB 5:12 09-09 The Parting Glass
--------------------------------------------------------------------------------
Number of tracks: 9
Official DR value: DR11
Samplerate: 96000 Hz
Channels: 2
Bits per sample: 24
Bitrate: 2729 kbps
Codec: FLAC
================================================================================
Cello – Caroline Lavelle
Guitar, Guitar Synthesizer, Mixed By – Brian Hughes
Harp, Piano, Vocals, Producer – Loreena McKennitt
#7#77
#77Лейбл: Quinlan Road – QRLP116
Страна-производитель: Canada
Формат записи: 24/96
Формат раздачи: 24/96
Продолжительность: 59:49
Треклист:
A1. The Mystic's Dream (Album Edit)
A2. Bonny Portmore
A3. The Bonny Swans (Album Edit)
A4. The Mummer's Dance (Single Remix)
A5. Down By The Sally Gardens
A6. Stolen Child
B1. The Lady Of Shalott (Album Edit)
B2. Marco Polo
B3. Penelope's Song
B4. Huron 'Beltane' Fire Dance
B5. The Old Ways
B6. Dante's Prayer
Источник оцифровки: Rockmaninov
Устройство воспроизведения: Clearaudio Champion Level II
Головка звукоснимателя: Sumiko Black Bird
Предварительный усилитель: Pro-Ject Phono Box RS
АЦП: RME Fireface UC
Программа-оцифровщик: Adobe Audition CS 5.5
———————————————————————————————-
Analyzed folder: /96kLoMcK_ThJoSoFa/96k Loreena McKennitt – The Journey So Far
———————————————————————————————-
DR Peak RMS Filename
———————————————————————————————-
DR11 -1.33 dB -14.24 dB A1 The Mystic’s Dream (album edit).wav
DR11 -2.59 dB -18.50 dB A2 Bonny Portmore.wav
DR12 -1.84 dB -16.06 dB A3 The Bonny Swans (album edit).wav
DR11 -1.22 dB -14.22 dB A4 The Mummer’s Dance (single remix).wav
DR10 -2.29 dB -14.84 dB A5 Down By The Sally Gardens.wav
DR10 -1.50 dB -15.17 dB A6 Stolen Child.wav
DR13 -3.53 dB -20.09 dB B1 The Lady Of Shalott (album edit).wav
DR14 -0.79 dB -16.44 dB B2 Marco Polo.wav
DR10 -3.30 dB -17.34 dB B3 Penelope’s Song.wav
DR12 -1.64 dB -16.45 dB B4 Huron ‘Beltane’ Fire Dance.wav
DR10 -2.50 dB -16.32 dB B5 The Old Ways.wav
DR13 -3.03 dB -19.99 dB B6 Dante’s Prayer.wav
———————————————————————————————-
Number of files: 12
Official DR value: DR11
========================================================
#7#77#7#77#7#77
Кельтская волшебница из Канады Лорина МакКеннитт - этническая ирландка. Она унаследовала от своих предков не только культурный багаж и огненный цвет волос, но и невероятную предприимчиивость. Стартовый капитал для своей музыкальной карьеры Лорина заработала, став победителем национального шоу талантов. Всю сумму она вложила в музыкальную студию, где записала свою первую пластинку. Особых проблем с распространением тиража не было: качественная кельтская музыка шла на ура, и вскоре пресса уже окрестила молодую певицу восходящей звездой фолк-сцены… Вот немного фактов о её жизни.
Лорина Маккеннитт родилась в канадском городке Морден в семье шотландско-ирландского происхождения (мать Ирен, — медицинская сестра, отец Джек, — скотопромышленник). Увлеклась кельтской музыкой ещё в юношеские годы, участвовала в местных фолк-группах.
В 1981 году переехала в Стратфорд (провинция Онтарио), где живёт и сейчас. В 1982 году, после поездки на родину предков, в Ирландию, записала песню на стихи Йейтса «The Stolen Child». В 1985 году самостоятельно записала дебютный альбом «Elemental», продавала кассеты с его записью на своих концертах. Тогда же основала собственную фирму звукозаписи «Quinlan Road» (названа по улице на окраине Стратфорда, где и находится), все последующие альбомы также выпускала сама.
В 1987 году на доходы, полученные с продаж диска «Elemental», Маккеннитт выпустила альбом рождественских песен «To Drive the Cold Winter Away». Известность в Канаде принёс ей третий альбом «Parallel Dreams» (1989).
После поездки в Европу в 1991 году и участия в фестивале в Венеции, посвящённом истории кельтов, Маккеннитт выпустила альбом «The Visit», сделавший её известной и за пределами Канады. В записи диска были использованы такие не характерные для кельтской музыкальной традиции инструменты, как тамбурин, балалайка, ситар. За альбом Лорина получила главную музыкальную награду Канады — премию «Juno».
В 1994 году Маккеннитт выпустила альбом «The Mask and Mirror», посвящённый средневековой Испании. Этот диск также был удостоен премии «Juno». На песню «The Bonnу Swans» был выпущен сингл и снят видеоклип.
В июле 1995 года Лорина записала рождественский мини-альбом «A Winter Garden» на студии Питера Габриэла «Real World» (Уилтшир, Англия).
Самым успешным альбомом певицы стал «The Book Of Secrets», выпущенный в 1997 году. На нём также используются кельтские, арабские и испанские мотивы. Песня «Dante’s Prayer» написана Лориной под впечатлением от путешествия по России на поезде по Транссибу. В ней использованы семплы с пением Петербургского камерного хора. На композицию «The Mummer’s Dance» был снят видеоклип и выпущен сингл с танцевальным ремиксом, достигший высоких строчек в различных чартах.
В июле 1998 года в жизни Лорины Маккеннитт произошла трагедия. Во время лодочной прогулки на озере Гурон утонули её жених Рональд Рис (Ronald Douglas Rees), его брат Ричард (Richard) и их друг Грегори Кук (Gregory Cook). В это время Маккеннитт работала над сведением двойного концертного альбома «Live in Paris and Toronto». Сборник вышел в 1999 году, все деньги от его продажи Лорина перечислила в основанный ей и родственниками погибших «Мемориальный фонд Кука-Рисов» («Cook-Rees Memorial Fund»). Фонд занимается проблемами обеспечения безопасности на водах.
В июле 2004 года генерал-губернатор Канады Адриенна Кларксон наградила певицу Орденом Канады, этой чести удостаиваются самые уважаемые граждане страны.
В 2005 году Маккеннитт была вовлечена в судебный скандал в Англии, связанный с публикацией книги «Путешествия с Лориной Маккеннитт», написанной её бывшей подругой Ниемой Эш (Niema Ash). По утверждению певицы, в книге содержится глубоко личная информация, на обнародование которой Эш не имела права. Английский суд признал притязания Маккеннит правомерными.
После потери жениха Лорина долгое время не работала в студии, лишь иногда давая благотворительные концерты. Новый альбом «An Ancient Muse» она выпустила только в 2006 году. Как и на предыдущих работах, здесь продолжена мультикультурная линия. Источником вдохновения выбраны страны «Великого Шёлкового Пути»: Греция, Турция, Монголия.
В сентябре 2006 года Лорина дала серию концертов в Альгамбре (Гранада, Испания). Год спустя был выпущен концертный альбом и DVD «Nights from the Alhambra», на котором представлены лучшие песни из музыкальной карьеры певицы.
Добавил:
1985 – Elemental
2010 – The Wind That Shakes The Barley
2012 – Troubadours On The Rhine
папки переименованы
Не забывайте говорить Спасибо. Не уходите с раздачи!   
Торрент: Зарегистрирован [16 июн 2017, 17:19]
Статус:
Проверен
 
.torrent скачан: 0 раз
Хэш: 7378320b01a473cd6bb8746ae5cd70a76d8cfddb
Размер: 12.05 ГБ (12 940 991 404 байт)
   Стать Автором раздачи
   
Цитата
  • Похожие торренты
    Ответы
    Просмотры
    Последнее сообщение

Вернуться в Фольклор, народная и этническая музыка (оцифровки)

Кто сейчас на конференции

Сейчас эту тему просматривают: нет зарегистрированных пользователей и гости: 1