(Folk) [7"] [24/96] VA - Народные плясовые: Барыня, Лезгинка, Яблочко, Цыганская венгерка - 1976, FLAC (tracks)

 Статистика раздачи 
Размер: 104.81 МБ   |  Зарегистрирован: 09 дек 2016, 08:25   |   .torrent скачан: 0 раз
Сидеров: 0  [ 0 байт/сек ]     Личеров: 0  [ 0 байт/сек ]  
  
Аватара пользователя
Главный редактор
Главный редактор
 
Раздал: 90.01 ТБ
Скачал: 3.78 ТБ
Ратио: 24.248
Сообщения: 273485
Стаж: 9 лет 1 месяц 10 дней
Откуда: Санкт-Петербург

Various Artists
Народные плясовые

Жанр: Folk
Носитель: 7"
Год выпуска: 1976
Лейбл: Мелодия (33ГД-000817-18 )
Страна-производитель: СССР
Аудио кодек: FLAC
Тип рипа: tracks
Формат записи: 24/96 dual mono
Формат раздачи: 24/96 mono
Продолжительность: 00:10:33
Тэги: прописаны
Источник оцифровки: автором раздачи
Код класса состояния винила: VG
Устройство воспроизведения: Электроника ЭП 017С
Головка звукоснимателя: ГЗМ – 028 (Корвет)
Предварительный усилитель: AMX - 100 (LTO®)
АЦП: Juli@
Программа-оцифровщик: Adobe Audition CS6 5.0.2
Обработка: реставрация
Треклист:
01. А. Шалаев и Н. Крылов (баяны) - Барыня
02. М. Пшихачёв (гармоника) и А. Исаков (доол) - Лезгинка
03. Н. Волшанинов, В. Туманский, Г. Орлов (гитары) - Цыганская венгерка
04. И. Марьин, А. Марьин, А. Эрастов (баяны) - Яблочко

Музыка народная (01-04)

Код: Выделить всё
foobar2000 1.1.3 / Dynamic Range Meter 1.1.1
log date: 2016-12-09 14:12:40
--------------------------------------------------------------------------------
Analyzed: А. Шалаев и Н. Крылов (баяны) / Народные плясовые (1)
          И. Марьин, А. Марьин, А. Эрастов (баяны) / Народные плясовые (2)
          М. Пшихачёв (гармоника) и А. Исаков (доол) / Народные плясовые (3)
          Н. Волшанинов, В. Туманский, Г. Орлов (гитары) / Народные плясовые (4)
--------------------------------------------------------------------------------
DR         Peak         RMS     Duration Track
--------------------------------------------------------------------------------
DR14       0.00 dB   -16.41 dB      2:53 ?-Барыня, русская плясовая
DR11       0.00 dB   -13.30 dB      1:48 ?-Яблочко, русская плясовая
DR11       0.00 dB   -13.14 dB      2:21 ?-Лезгинка
DR10       0.00 dB   -13.63 dB      3:31 ?-Цыганская венгерка
--------------------------------------------------------------------------------
Number of tracks:  4
Official DR value: DR11
Samplerate:        96000 Hz
Channels:          1
Bits per sample:   24
Bitrate:           1285 kbps
Codec:             FLAC
================================================================================


Не забывайте говорить Спасибо. Не уходите с раздачи!   
Торрент: Зарегистрирован [09 дек 2016, 08:25]
Статус:
Проверен
 
.torrent скачан: 0 раз
Хэш: c997ff4b60962d95d992acf77e7a81991acfe0dc
Размер: 104.81 МБ (109 900 420 байт)
   Стать Автором раздачи
   
Цитата
  • Похожие торренты
    Ответы
    Просмотры
    Последнее сообщение

Вернуться в Фольклор, народная и этническая музыка (оцифровки)

Кто сейчас на конференции

Сейчас эту тему просматривают: нет зарегистрированных пользователей и гости: 1