(Folk Rock) [MB] [24/96] Phil Ochs - Pleasures Of The Harbor - 1967, FLAC (tracks+.cue)

 Статистика раздачи 
Размер: 1.05 ГБ   |  Зарегистрирован: 18 ноя 2016, 09:28   |   .torrent скачан: 0 раз
Сидеров: 0  [ 0 байт/сек ]     Личеров: 0  [ 0 байт/сек ]  
  
Аватара пользователя
Главный редактор
Главный редактор
Я на сайте
 
Раздал: 90.01 ТБ
Скачал: 3.78 ТБ
Ратио: 24.248
Сообщения: 273922
Стаж: 9 лет 1 месяц 15 дней
Откуда: Санкт-Петербург

Phil Ochs - Pleasures Of The Harbor
Жанр: Folk Rock
Носитель: MB, Reel-To-Reel, 3 & 3/4 ips, Stereo
Год выпуска: 1967
Лейбл: A&M Records - AMX 133
Страна-производитель: USA
Аудио кодек: FLAC
Тип рипа: tracks+.cue
Формат записи: 24/96
Формат раздачи: 24/96
Продолжительность: 00:52:03
Треклист:
Side 1 (26:42)
A1 - Cross My Heart
A2 - Flower Lady
A3 - Outside Of A Small Circle Of Friends
Piano [Accompaniment] – Lincoln Mayorga
A4 - I've Had Her
A5 - Miranda
Side 2 (24:57)
B1 - The Party
Piano [Accompaniment] – Lincoln Mayorga
B2 - Pleasures Of The Harbor
B3 - The Crucifixion
Credits
Arranged By – Ian Freebairn-Smith, Joseph Byrd (tracks: B3)
Design [Album] – Peter Whorf Graphics
Liner Notes, Written-By – Phil Ochs
Photography By [Cover] – Jim McCrary
Photography By [Liner] – Alice Ochs
Producer – Larry Marks
Notes
Reel-to-reel.
Mastered, duplicated and quality audited exclusively with AMPEX professional recorders, on ampex tape.
This tape recording contains two automatic reversing signals, one at end of Side A program, the other at the end of Side B.
These program reversing signals function only with the tape records which are equipped with Ampex-Style reversing circuitry.
Источник оцифровки: третьим лицом
Устройство воспроизведения: Akai GX-4000D Tape Deck
Предварительный усилитель: Heathkit AA-11 Tube Preamp
АЦП: Sony PCM-M10 Recorder
Программа-оцифровщик: Sony PCM-M10 Recorder
Обработка: Не указано
Доп. информация:
foobar2000 1.3.13 / Dynamic Range Meter 1.1.1
log date: 2016-11-06 10:21:02
--------------------------------------------------------------------------------
Analyzed: Phil Ochs / Pleasures Of The Harbor
--------------------------------------------------------------------------------
DR Peak RMS Duration Track
--------------------------------------------------------------------------------
DR9 -2.43 dB -14.26 dB 3:26 01-Cross My Heart
DR10 -2.47 dB -15.74 dB 6:08 02-Flower Lady
DR11 -2.51 dB -14.83 dB 3:45 03-Outside Of A Small Circle Of Friends
DR11 -3.11 dB -17.77 dB 8:13 04-I've Had Her
DR10 -2.36 dB -14.44 dB 5:22 05-Miranda
DR11 -3.34 dB -15.94 dB 8:08 06-The Party
DR10 -3.15 dB -16.57 dB 8:13 07-Pleasures Of The Harbor
DR10 -2.72 dB -15.28 dB 8:49 08-The Crucifixion
--------------------------------------------------------------------------------
Number of tracks: 8
Official DR value: DR10
Samplerate: 96000 Hz
Channels: 2
Bits per sample: 24
Bitrate: 2927 kbps
Codec: FLAC
================================================================================
Не забывайте говорить Спасибо. Не уходите с раздачи!   
Торрент: Зарегистрирован [18 ноя 2016, 09:28]
Статус:
Проверен
 
.torrent скачан: 0 раз
Хэш: 8f4603184012b869b1d100f17edd08d21da1b71d
Размер: 1.05 ГБ (1 130 845 013 байт)
   Стать Автором раздачи
   
Цитата
  • Похожие торренты
    Ответы
    Просмотры
    Последнее сообщение

Вернуться в Фольклор, народная и этническая музыка (оцифровки)

Кто сейчас на конференции

Сейчас эту тему просматривают: нет зарегистрированных пользователей и гости: 1