(Country Blues, Folk) [LP] [24/96] Dave Van Ronk - Just Dave Van Ronk - 1964, (Mono) FLAC (tracks+.cue)

 Статистика раздачи 
Размер: 383.93 МБ   |  Зарегистрирован: 22 апр 2017, 09:29   |   .torrent скачан: 0 раз
Сидеров: 0  [ 0 байт/сек ]     Личеров: 0  [ 0 байт/сек ]  
  
Аватара пользователя
Главный редактор
Главный редактор
 
Раздал: 90.01 ТБ
Скачал: 3.78 ТБ
Ратио: 24.248
Сообщения: 274898
Стаж: 9 лет 1 месяц 21 день
Откуда: Санкт-Петербург

Dave Van Ronk - Just Dave Van Ronk
Жанр: Country Blues, Folk
Носитель: LP, Mono
Год выпуска: 1964
Лейбл: Mercury - MG 20908
Страна-производитель: US
Аудио кодек: FLAC
Тип рипа: tracks+.cue
Формат записи: 24/96
Формат раздачи: 24/96
Продолжительность: 00:36:01
Треклист:
Side 1
A1 - Candy Man - 2:29
A2 - Frankie's Blues - 4:36
A3 - Bad Dream Blues - 4:57
A4 - Pastures Of Plenty - 3:25
A5 - Didn't It Rain - 3:00
Side 2
B1 - Wanderin' - 2:53
B2 - God Bless The Child - 4:22
B3 - Blue Monday - 1:59
B4 - Baby, Let Me Lay It On You - 1:35
B5 - House Of The Rising Sun - 5:35
Companies, etc.
Record Company - Mercury Record Corporation
Published By - M. Witmark & Sons
Published By - Ludlow Music, Inc.
Published By - Emarcy Publ., Inc.
Published By - Republic Music
Published By - Edward B. Marks Music Corporation
Published By - Travis Music Co.
Published By - MRC Music Inc.
Credits
Acoustic Guitar [Uncredited] - Dave Van Ronk
Arranged By - Dave Van Ronk (tracks: B5)
Edited By [Edited By] - Terri Van Ronk
Engineer - Rudy Van Gelder
Liner Notes - Terri Van Ronk
Producer - Frank Fried
Vocals [Uncredited] - Dave Van Ronk
Written-By - Arthur Herzog, Jr. (tracks: B2), Billie Holiday (tracks: B2), Dave Bartholomew (tracks: B3), Dave Van Ronk (tracks: A2, A3), Gary Davis (tracks: A1, B4), Sammy Kaye (tracks: B1), Traditional (tracks: A5, B5), Woody Guthrie (tracks: A4)
Notes
Vendor: Mercury Record Corporation
Side 1 Publishers (Rights Societies)
1. M. Witmark & Sons (ASCAP)
2. M. Witmark & Sons (ASCAP)
3. M. Witmark & Sons (ASCAP)
4. Ludlow Music, Inc. (BMI)
5. Emercy Publishing, Inc. (ASCAP)
Side 2 Publishers (Rights Societies):
1. Republic Music Corporation (BMI)
2. Edward B. Marks Music Corporation (BMI)
3. Travis Music Co. (BMI)
4. MRC Music Inc. (ASCAP)
5. M. Witmark & Sons (ASCAP)
Barcode and Other Identifiers
Rights Society (A1 to A3, A5, B4, B5): ASCAP
Rights Society (A4, B1 to B3): BMI
Источник оцифровки: третьим лицом
Код класса состояния винила: VG+
Устройство воспроизведения: Technics SL1200 Mk2
Головка звукоснимателя: Technics EPC-305MC
Предварительный усилитель: Heathkit AA-11 Tube
АЦП: Sony PCM-M10 Recorder
Программа-оцифровщик: Sony PCM-M10 Recorder
Обработка: Не указано
Доп. информация:
foobar2000 1.3.8 / Dynamic Range Meter 1.1.1
log date: 2016-10-01 16:12:06
--------------------------------------------------------------------------------
Analyzed: Dave Van Ronk / Just Dave Van Ronk
--------------------------------------------------------------------------------
DR Peak RMS Duration Track
--------------------------------------------------------------------------------
DR12 -1.23 dB -16.73 dB 2:38 01-Candy Man
DR13 -2.58 dB -17.78 dB 4:46 02-Frankie's Blues
DR12 -2.81 dB -17.15 dB 5:07 03-Bad Dream Blues
DR12 -2.52 dB -16.63 dB 3:31 04-Pastures Of Plenty
DR11 -2.13 dB -16.18 dB 3:05 05-Didn't It Rain
DR9 -1.52 dB -13.71 dB 2:56 06-Wanderin'
DR13 -2.37 dB -19.62 dB 4:31 07-God Bless The Child
DR12 -2.58 dB -16.46 dB 2:06 08-Blue Monday
DR12 -2.95 dB -18.04 dB 1:40 09-Baby, Let Me Lay It On You
DR14 -2.79 dB -20.37 dB 5:41 10-House Of The Rising Sun
--------------------------------------------------------------------------------
Number of tracks: 10
Official DR value: DR12
Samplerate: 96000 Hz
Channels: 2
Bits per sample: 24
Bitrate: 1347 kbps
Codec: FLAC
================================================================================
Не забывайте говорить Спасибо. Не уходите с раздачи!   
Торрент: Зарегистрирован [22 апр 2017, 09:29]
Статус:
Проверен
 
.torrent скачан: 0 раз
Хэш: f6a11fb75ca31b8839b1e4c006e96fe91184d4a1
Размер: 383.93 МБ (402 576 653 байт)
   Стать Автором раздачи
   
Цитата
  • Похожие торренты
    Ответы
    Просмотры
    Последнее сообщение

Вернуться в Фольклор, народная и этническая музыка (оцифровки)

Кто сейчас на конференции

Сейчас эту тему просматривают: нет зарегистрированных пользователей и гости: 1