(Folk, World, Country) [LP] [24/96] Тройка. Ямщицкие песни (Troika. Coachmen's songs) - 1991, FLAC (tracks+.cue)

 Статистика раздачи 
Размер: 740.77 МБ   |  Зарегистрирован: 31 окт 2015, 04:52   |   .torrent скачан: 0 раз
Сидеров: 0  [ 0 байт/сек ]     Личеров: 0  [ 0 байт/сек ]  
  
Аватара пользователя
Главный редактор
Главный редактор
 
Раздал: 90.01 ТБ
Скачал: 3.78 ТБ
Ратио: 24.248
Сообщения: 274187
Стаж: 9 лет 1 месяц 18 дней
Откуда: Санкт-Петербург

Тройка. Ямщицкие песни (Troika. Coachmen's songs)
Жанр: Folk, World, Country
Носитель: LP
Год выпуска: 1991
Лейбл: Мелодия - С20 25273 001 (C) 1988
Всесоюзная студия грамзаписи, 1986
Страна-производитель: СССР
Аудио кодек: FLAC
Тип рипа: tracks+.cue
Формат записи: 32/192
Формат раздачи: 24/96
Продолжительность: 00:37:23
Треклист:
01. Вот на пути село большое (музыка народная - Н. Анордист) (5:13)
02. Однозвучно гремит колокольчик (К. Сидорович - И. Макаров) (2:39)
03. Когда я на почте служил ямщиком (музыка народная - Л. Трефолев) (4:54)
04. Тройка (П. Булахов - П. Вяземский) (2:05)
05. Что так скучно, что так грустно (русская народная песня) (3:26)
06. Ну быстрей летите кони (русская народная песня) (2:33)
07. Вот мчится тройка почтовая (русская народная песня) (3:37)
08. Это было давно (русская народная песня) (3:22)
09. Извозчик (русская народная песня) (3:14)
10. Степь (музыка народная - И. Суриков) (3:34)
11. Запрягу я тройку борзых (И. Лазарев - Фадеев) (2:46)
Ансамбль солистов Государственного академического русского народного оркестра им. Н. Осипова под управлением Николая Калинина
Обработки Анатолия Симона
Анатолии Сафиулин (1, 3, 5, 7, 9, 11)
Нина Высотина (2, 4, 6, 8, 10)
Источник оцифровки: автором раздачи
Код класса состояния винила: G
Устройство воспроизведения: Dual CS-750
Головка звукоснимателя: Ortofon VMS20EO
Предварительный усилитель: Yanaha C-4
АЦП: Asus Xsonar DX
Программа-оцифровщик: Adobe Audition CC
Обработка: Удаление наиболее крупных щелчков вручную, мелкие не трогались (их много)
Любой трек
Код: Выделить всё
foobar2000 1.3.5 / Dynamic Range Meter 1.1.1
log date: 2016-01-24 16:20:08
--------------------------------------------------------------------------------
Analyzed: Ансамбль солистов Государственного академического русского народного оркестра им. Н. Осипова под управлением Николая Калинина / Тройка. Ямщицкие песни
--------------------------------------------------------------------------------
DR         Peak         RMS     Duration Track
--------------------------------------------------------------------------------
DR11      -2.16 dB   -15.65 dB      5:18 01-Вот на пути село большое (музыка народная - Н. Анордист)
DR10      -2.73 dB   -15.66 dB      2:45 02-Однозвучно гремит колокольчик (К. Сидорович - И. Макаров)
DR11      -0.36 dB   -15.38 dB      4:59 03-Когда я на почте служил ямщиком (музыка народная - Л. Трефолев)
DR10      -0.71 dB   -14.57 dB      2:10 04-Тройка (П. Булахов - П. Вяземский)
DR11      -1.74 dB   -15.86 dB      3:30 05-Что так скучно, что так грустно (русская народная песня)
DR10      -0.44 dB   -14.61 dB      2:39 06-Ну быстрей летите кони (русская народная песня)
DR11      -1.69 dB   -16.18 dB      3:45 07-Вот мчится тройка почтовая (русская народная песня)
DR11      -0.22 dB   -15.68 dB      3:29 08-Это было давно (русская народная песня)
DR12      -1.75 dB   -15.67 dB      3:20 09-Извозчик (русская народная песня)
DR10      -0.20 dB   -14.90 dB      3:41 10-Степь (музыка народная - И. Суриков)
DR11      -0.20 dB   -14.32 dB      2:49 11-Запрягу я тройку борзых (И. Лазарев - Фадеев)
--------------------------------------------------------------------------------
Number of tracks:  11
Official DR value: DR11
Samplerate:        96000 Hz
Channels:          2
Bits per sample:   24
Bitrate:           2705 kbps
Codec:             FLAC
================================================================================
Доп. информация: DisCogs
Не забывайте говорить Спасибо. Не уходите с раздачи!   
Торрент: Зарегистрирован [31 окт 2015, 04:52]
Статус:
Проверен
 
.torrent скачан: 0 раз
Хэш: ac5dfc2fc1e56eb9268856bc639c1997d4a45f4a
Размер: 740.77 МБ (776 755 577 байт)
   Стать Автором раздачи
   
Цитата

Вернуться в Фольклор, народная и этническая музыка (оцифровки)

Кто сейчас на конференции

Сейчас эту тему просматривают: нет зарегистрированных пользователей и гости: 1