(Folk) [LP] [24/48] Рустави - Грузинские народные песни - 1984, FLAC (tracks+.cue)

 Статистика раздачи 
Размер: 398.82 МБ   |  Зарегистрирован: 06 апр 2015, 06:07   |   .torrent скачан: 0 раз
Сидеров: 0  [ 0 байт/сек ]     Личеров: 0  [ 0 байт/сек ]  
  
Аватара пользователя
Главный редактор
Главный редактор
 
Раздал: 90.01 ТБ
Скачал: 3.78 ТБ
Ратио: 24.248
Сообщения: 274043
Стаж: 9 лет 1 месяц 16 дней
Откуда: Санкт-Петербург

Рустави - Грузинские народные песни
Жанр: Folk
Носитель: LP
Год выпуска: 1984
Лейбл: Melodya (TSG)
Страна-производитель: USSR
Аудио кодек: FLAC
Тип рипа: tracks+.cue
Формат записи: 32/192
Формат раздачи: 24/48
Продолжительность: 37.11 min
Треклист:
01. Хорал
02. Одоиа (Менгрельская, трудовая)
03. Мегрули нана (Менгрельская, колыбельная)
04. Цамокрули (Гурийская, застольная)
05. Цинцкаро (Каралино-Кахетинская, лирическая)
06. Надури (Гурийская, трудовая)
07. Шен хар венахи (Карталино-Кахетинская, хорал)
08. Имерули мхедрули (имеретинская, походная)
09. Хорал
10. Гушин швидни Гурджанелни (Кахетинская, эпико-героическая)
11. Акиши (Абхаская, песня всадников)
12. Кахури мравалжамиери (Кахетинская, застольная)
Источник оцифровки: автором раздачи
Код класса состояния винила: Ex
Устройство воспроизведения: Электроника ЭП 017С
Головка звукоснимателя: Audio-Technica AT95
Предварительный усилитель: Бриг-001
АЦП: VIA HD audio device
Программа-оцифровщик: Izotope RX III Advanced
Обработка: Izotope RX III Advanced
foobar2000 1.1.10 / Dynamic Range Meter 1.1.1
log date: 2014-11-03 15:11:00
--------------------------------------------------------------------------------
Analyzed: Rustavi / Georgian Folk Songs
--------------------------------------------------------------------------------
DR Peak RMS Duration Track
--------------------------------------------------------------------------------
DR11 -9.96 dB -27.24 dB 2:55 ?-Choral
DR11 -1.23 dB -17.45 dB 3:01 ?-Odoia (Megrelian, work song)
DR11 -10.60 dB -27.37 dB 2:45 ?-Megruli Nana (Megrelian, Lullaby)
DR10 -2.38 dB -17.12 dB 2:07 ?-Tsamokruli (Gurian, drinking-song)
DR13 -5.05 dB -25.58 dB 3:54 ?-Tsintskaro (Kartalino - Kakhetian, Lyric song)
DR12 0.00 dB -16.42 dB 2:56 ?-Naduri (Gurian, work song)
DR11 -5.71 dB -22.29 dB 3:25 ?-Shen Khar Venakhi (Kartalino-Kakhetian, choral)
DR12 -1.83 dB -16.96 dB 1:49 ?-Imeruli Mkhedruli (Imeretian, marching song)
DR11 -10.66 dB -26.95 dB 3:06 ?-Choral
DR12 -2.03 dB -20.96 dB 4:42 ?-Gushin Shvidni Gurjanelni (Kakhetian, epico-heroic song)
DR11 -2.54 dB -17.26 dB 1:54 ?-Akishi (Abkhazian, horsemen's song)
DR11 -2.58 dB -17.33 dB 4:35 ?-Kakhuri Mravalzhamieri (Kakhetian, drinking song)
--------------------------------------------------------------------------------
Number of tracks: 12
Official DR value: DR11
Samplerate: 48000 Hz
Channels: 2
Bits per sample: 24
Bitrate: 1512 kbps
Codec: FLAC
================================================================================

Не забывайте говорить Спасибо. Не уходите с раздачи!   
Торрент: Зарегистрирован [06 апр 2015, 06:07]
Статус:
Проверен
 
.torrent скачан: 0 раз
Хэш: 0e4276788e8f0d72db4a3add19c07cccb9026ec1
Размер: 398.82 МБ (418 188 473 байт)
   Стать Автором раздачи
   
Цитата

Вернуться в Фольклор, народная и этническая музыка (оцифровки)

Кто сейчас на конференции

Сейчас эту тему просматривают: нет зарегистрированных пользователей и гости: 1