(Folk) [LP] [24/192] Поют Сестры Ишхнели - Грузинские народные песни - 1979, FLAC (tracks+.cue)

 Статистика раздачи 
Размер: 791.85 МБ   |  Зарегистрирован: 15 апр 2015, 16:35   |   .torrent скачан: 0 раз
Сидеров: 0  [ 0 байт/сек ]     Личеров: 0  [ 0 байт/сек ]  
  
Аватара пользователя
Главный редактор
Главный редактор
 
Раздал: 90.01 ТБ
Скачал: 3.78 ТБ
Ратио: 24.248
Сообщения: 273876
Стаж: 9 лет 1 месяц 14 дней
Откуда: Санкт-Петербург

Поют Сестры Ишхнели - Грузинские народные песни
Жанр: Folk
Носитель: LP
Год выпуска: 1979
Лейбл: Мелодия (TSG)
Страна-производитель: USSR
Аудио кодек: FLAC
Тип рипа: tracks+.cue
Формат записи: 32/192
Формат раздачи: 24/192
Продолжительность: 41:15
Треклист:
01. Бежит Арагва
02. Только тебе
03. Весна
04. Привет тебе, прекрасная
05. О Маргарита
06. Красный мак расцвел
07. Ни да, ни нет
08. Сулико
09. На лазурном небе
10. Многие лета
11. Кто восхвалял тебя
12. Осушу слезы
13. Девушка
14. Светлячок
15. Любимая
16. Ни о чем не вспоминаю
Источник оцифровки: автором раздачи
Код класса состояния винила: NM
Устройство воспроизведения: Электроника ЭП 017С
Головка звукоснимателя: Audio-Technica AT95
Предварительный усилитель: Бриг-001
АЦП: VIA HD audio device
Программа-оцифровщик: Izotope RX 4 Advanced
Обработка: Manual declick
foobar2000 1.1.10 / Dynamic Range Meter 1.1.1
log date: 2015-04-15 19:59:38
--------------------------------------------------------------------------------
Analyzed: Поют Сестры Ишхнели / Грузинские народные песни
--------------------------------------------------------------------------------
DR Peak RMS Duration Track
--------------------------------------------------------------------------------
DR11 -6.92 dB -20.65 dB 3:07 ?-Бежит Арагва
DR11 -5.69 dB -21.54 dB 1:46 ?-Только тебе
DR12 -6.69 dB -22.55 dB 2:21 ?-Весна
DR12 -8.80 dB -23.75 dB 3:27 ?-Привет тебе, прекрасная
DR11 -6.41 dB -21.82 dB 3:10 ?-О Маргарита
DR11 -6.50 dB -19.75 dB 2:15 ?-Красный мак расцвел
DR12 -5.70 dB -20.16 dB 2:29 ?-Ни да, ни нет
DR12 -8.24 dB -23.17 dB 2:31 ?-Сулико
DR11 -6.57 dB -20.11 dB 1:14 ?-На лазурном небе
DR10 -5.78 dB -18.06 dB 2:39 ?-Многие лета
DR11 -7.18 dB -21.25 dB 2:32 ?-Кто восхвалял тебя
DR12 -7.05 dB -21.92 dB 3:00 ?-Осушу слезы
DR12 -5.26 dB -21.23 dB 2:44 ?-Девушка
DR11 -5.60 dB -18.97 dB 2:26 ?-Светлячок
DR11 -6.69 dB -20.79 dB 2:34 ?-Любимая
DR12 -7.02 dB -22.03 dB 3:01 ?-Ни о чем не вспоминаю
--------------------------------------------------------------------------------
Number of tracks: 16
Official DR value: DR11
Samplerate: 192000 Hz
Channels: 1
Bits per sample: 24
Bitrate: 2644 kbps
Codec: FLAC
================================================================================
обработка минимальная - удалил мелкие щелчки в ручную
Не забывайте говорить Спасибо. Не уходите с раздачи!   
Торрент: Зарегистрирован [15 апр 2015, 16:35]
Статус:
Проверен
 
.torrent скачан: 0 раз
Хэш: 822def7ef0a78d1fe2737fdddee229018407f761
Размер: 791.85 МБ (830 314 689 байт)
   Стать Автором раздачи
   
Цитата

Вернуться в Фольклор, народная и этническая музыка (оцифровки)

Кто сейчас на конференции

Сейчас эту тему просматривают: нет зарегистрированных пользователей и гости: 1