(Folk, World, & Country) [LP] [24/96] Инна Желанная ‎– Водоросль - 2013, FLAC (image+.cue)

 Статистика раздачи 
Размер: 869.24 МБ   |  Зарегистрирован: 03 янв 2017, 16:07   |   .torrent скачан: 0 раз
Сидеров: 0  [ 0 байт/сек ]     Личеров: 0  [ 0 байт/сек ]  
  
Аватара пользователя
Главный редактор
Главный редактор
 
Раздал: 90.01 ТБ
Скачал: 3.78 ТБ
Ратио: 24.248
Сообщения: 274856
Стаж: 9 лет 1 месяц 20 дней
Откуда: Санкт-Петербург

Инна Желанная ‎– Водоросль
Жанр: Folk, World
Носитель: LP
Год выпуска: 2013
Лейбл: Мирумир ‎
Страна-производитель: Russia
Аудио кодек: FLAC
Тип рипа: image+.cue
Формат записи: 24/96
Формат раздачи: 24/96
Продолжительность: 00:41:57
Треклист:
Сторона A:
1. Сестра
2. Только с тобой
3. Баллада
4. Дальше
5. Сероглазый
6. Колыбельная
Сторона B:
1. Из-под свет заря
2. Иван
3. Вир-вир
4. Мама
5. До самого неба
Источник оцифровки: автором раздачи
Код класса состояния винила: Ex
Устройство воспроизведения: Technics SL-1210MKII
Головка звукоснимателя: AT-440MLa
Предварительный усилитель: ММ/МС Sander'Z (транзисторный)
АЦП: ESI Juli@
Программа-оцифровщик: Adobe Audition
Обработка: Удалил один щелчок в 4 треке.
Код: Выделить всё
foobar2000 1.3.1 / Dynamic Range Meter 1.1.1
log date: 2017-01-03 19:06:33
--------------------------------------------------------------------------------
Analyzed: Инна Желанная / Водоросль
--------------------------------------------------------------------------------
DR         Peak         RMS     Duration Track
--------------------------------------------------------------------------------
DR13      -2.88 dB   -19.58 dB      4:30 01-Сестра
DR12      -3.10 dB   -18.24 dB      3:25 02-Только с тобой
DR12      -7.32 dB   -21.17 dB      2:38 03-Баллада
DR14      -2.74 dB   -19.44 dB      4:16 04-Дальше
DR13      -3.41 dB   -17.54 dB      2:43 05-Сероглазый
DR12      -5.00 dB   -19.94 dB      2:54 06-Колыбельная
DR13      -2.24 dB   -16.80 dB      4:06 07-Из-под свет заря
DR12      -2.12 dB   -18.25 dB      3:47 08-Иван
DR13      -0.56 dB   -17.43 dB      4:32 09-Вир-вир
DR13      -2.44 dB   -18.72 dB      5:16 10-Мама
DR12      -1.89 dB   -18.04 dB      3:50 11-До самого неба
--------------------------------------------------------------------------------
Number of tracks:  11
Official DR value: DR13
Samplerate:        96000 Hz
Channels:          2
Bits per sample:   24
Bitrate:           2896 kbps
Codec:             FLAC
================================================================================
Не забывайте говорить Спасибо. Не уходите с раздачи!   
Торрент: Зарегистрирован [03 янв 2017, 16:07]
Статус:
Проверен
 
.torrent скачан: 0 раз
Хэш: b0da22655bbfa7e95aa38031cb772261079cb53b
Размер: 869.24 МБ (911 463 125 байт)
   Стать Автором раздачи
   
Цитата

Вернуться в Фольклор, народная и этническая музыка (оцифровки)

Кто сейчас на конференции

Сейчас эту тему просматривают: нет зарегистрированных пользователей и гости: 1