(World, Ethnic) [2 LP][24/96] Ali Farka Toure & Toumani Diabate - Ali & Toumani - 2010, FLAC

 Статистика раздачи 
Размер: 1.05 ГБ   |  Зарегистрирован: 15 фев 2012, 19:48   |   .torrent скачан: 0 раз
Сидеров: 0  [ 0 байт/сек ]     Личеров: 0  [ 0 байт/сек ]  
  
Аватара пользователя
Главный редактор
Главный редактор
 
Раздал: 90.01 ТБ
Скачал: 3.78 ТБ
Ратио: 24.248
Сообщения: 274856
Стаж: 9 лет 1 месяц 20 дней
Откуда: Санкт-Петербург

Ali Farka Toure & Toumani Diabate / Ali & Toumani
Жанр: World, Ethnic
Страна-производитель диска: UK
Год издания диска: 2010
Издатель (лейбл): World Circuit
Номер по каталогу: WCV083
Аудиокодек: FLAC (*.flac)
Формат раздачи: 24/96
Тип рипа: tracks
Битрейт аудио: 2567
Продолжительность: 59:42
Источник (релизер): Kel bazar
Наличие сканов в содержимом раздачи: да
Треклист:
A1 Ruby
A2 Sabu Yerkoy, Backing Vocals – Ali Magasa*, Souleye Kane, Vieux Farka Touré
A3 Bé Mankan
B1 Doudou
B2 Warbé
B3 Kenouna (Bonus Track)
C1 Samba Geladio
C2 Sina Mory
C3 56
C4 Fantasy
D1 Machengoidi
D2 Kana Kassy (Bonus Track)
D3 Kala Djula
Recorded at Livingston Studios, London 24th, 25th, 26th June 2005
Код: Выделить всё
foobar2000 1.0.3 / Dynamic Range Meter 1.1.0
log date: 2011-11-24 11:23:34
--------------------------------------------------------------------------------
Analyzed: Ali Farka Touré & Toumani Diabaté / Ali & Toumani
--------------------------------------------------------------------------------
DR         Peak         RMS     Duration Track
--------------------------------------------------------------------------------
DR11      -0.05 dB   -14.29 dB      5:55 01-Ruby
DR12      -1.96 dB   -16.59 dB      4:09 02-Sabu Yerkoy
DR14      -0.80 dB   -18.98 dB      5:08 03-Bé Mankan
DR12      -0.05 dB   -16.16 dB      4:47 04-Doudou
DR12      -1.79 dB   -17.20 dB      4:49 05-Warbé
DR12      -1.56 dB   -17.03 dB      5:06 06-Kenouna
DR12      -3.61 dB   -19.86 dB      3:17 07-Samba Geladio
DR11      -2.01 dB   -18.13 dB      4:28 08-Sina Mory
DR13       0.00 dB   -16.78 dB      6:57 09-56
DR12      -6.48 dB   -22.35 dB      2:19 10-Fantasy
DR15      -2.00 dB   -21.55 dB      5:04 11-Machengoidi
DR12      -0.05 dB   -15.43 dB      4:10 12-Kana Kassy
DR11      -2.46 dB   -17.03 dB      3:31 13-Kala Djula
--------------------------------------------------------------------------------
Number of tracks:  13
Official DR value: DR12
Samplerate:        96000 Hz
Channels:          2
Bits per sample:   24
Bitrate:           2567 kbps
Codec:             FLAC

Доп. информация: Ripping Equipment:
TT: Technics SP 15 with SME 3009 tonearm & customized plinth
Cartridge: Ortofon Concorde OM 30 MM
Phono amp: Pro-Ject Tube Box II with 2X JAN 12AX 7WA (General Electric)
Cables: Wire World Solstice 5.2
Computer: Sony Vaio VPCJ1
ADC: Tascam US-144 external USB 2.0 Audiointerface
Software: WaveLab 5.01, ClickRepair, Redbook Resampled And Dithered with iZotope RX
Due to the international success of In the Heart of the Moon, Mandé lineage griot Toumani Diabaté wanted to make a follow-up with fellow Malaian, the legendary guitarist Ali Farka Touré. The first record had been cut in Niafunke, Touré’s home village in the north of Mali, Diabaté contacted World Circuit's Nick Gold about doing the follow-up in London, where the pair was due to play a couple of concerts. Gold agreed and suggested they include Cuban bassist Orlando “Cachaito” Lopez on the session. There was some urgency: Touré was dying. The sessions were cut over four days in June of 2005; this is his last recording. The contents are made up of improvisations and new versions of old songs from both men’s regions. Opener “Ruby” is a gorgeous improvisation, where Touré doesn’t play the role of guitar slinger, but of a guitarist playing only for his own enjoyment, softly, gently, with his trance-like hypnotic rhythm, allowing Diabaté to let his kora flow over the modal pattern. Cachaito makes the first of five appearances here. “Sabu Yerkoy” is a proper entrance. It is Touré’s take on Cuban salsa (with his son on congas). The rhythmic interplay between drums, bass, and acoustic guitar is intricate and subtle with its gentle, seductive approach. “Doudou” is a completely new take on an old Mandé song, weaving together a Senegalese mbalax rhythm and the kora’s harmonic palette. Along the lines of the intricate melody, Touré layers one atop another from one of his own songs, with “Singya” on top. It’s easily among the most beautiful thing here. Touré’s rhythmic approach shines on “Samba Gerladio,” another new version of a very old folk song. Touré introduces it and Diabaté eventually encounters him on the chorus, weaving a new melody based on Touré’s blues. “Sina Mory” is the very first song Touré learned to play on the guitar -- this may have been the last time he played it. “Kala Djula,” a griot’s hymn, closes the set as a celebratory song. Its rhythmic feel -- held down by Cachaito -- is cut-time, but the pace is graceful, easy, relaxed. Diabaté’s soloing is breathtaking, full of humor and warmth. Touré interjects his own slippery guitar pattern, creating a second-line melody. This self-titled album is a fitting tribute to Touré’s and Diabaté’s genius and friendship, and is a beautiful farewell. --Allmusic
Artwork – Iwant Design
Bass – Orlando 'Cachaito' Lopez* (tracks: A1, A2, B2, B3 & D1)
Congas – Vieux Farka Touré (tracks: A2, B2 & D1)
Edited By, Mastered By – Tom Leader
Engineer [Assistant Mix] – Dan Ingall, Sonny Ingall
Engineer [Assistant Recording] – Donald Clark
Guitar – Ali Farka Touré
Kora – Toumani Diabaté
Mixed By, Recorded By – Jerry Boys
Percussion – Tim Keiper (tracks: B2, D1)
Photography By [Additional] – Mattia Zoppellaro, Youri Lenquette
Photography By [Cover And Additional ] – Christina Jaspars
Producer – Nick Gold
Vocals – Ali Farka Touré (tracks: A2, C1)
Не забывайте говорить Спасибо. Не уходите с раздачи!   
Торрент: Зарегистрирован [15 фев 2012, 19:48]
Статус:
Проверен
 
.torrent скачан: 0 раз
Хэш: 7ece6af0b817a7633f54ea660e6a2192c9946907
Размер: 1.05 ГБ (1 128 265 532 байт)
   Стать Автором раздачи
   
Цитата

Вернуться в Фольклор, народная и этническая музыка (оцифровки)

Кто сейчас на конференции

Сейчас эту тему просматривают: нет зарегистрированных пользователей и гости: 1