(Folk, African) [LP] [24/96] Ali Farka Touré / Ali Farka Toure - Ali Farka Touré - 1987, FLAC (tracks+.cue)

 Статистика раздачи 
Размер: 837.25 МБ   |  Зарегистрирован: 23 окт 2016, 08:11   |   .torrent скачан: 0 раз
Сидеров: 0  [ 0 байт/сек ]     Личеров: 0  [ 0 байт/сек ]  
  
Аватара пользователя
Главный редактор
Главный редактор
 
Раздал: 90.01 ТБ
Скачал: 3.78 ТБ
Ратио: 24.248
Сообщения: 273621
Стаж: 9 лет 1 месяц 12 дней
Откуда: Санкт-Петербург

Ali Farka Touré - Ali Farka Touré
Жанр: Folk, African
Носитель: LP
Год выпуска: 1987
Лейбл: World Circuit - WCB 007
Страна-производитель: UK
Аудио кодек: FLAC
Тип рипа: tracks+.cue
Формат записи: 24/96
Формат раздачи: 24/96
Продолжительность: 00:46:17
Треклист:
Side 1
A1 - Timbarma - 5:05
A2 - Singya - 5:23
A3 - Nawiye - 5:38
A4 - Bakoytereye - 5:00
Side 2
B1 - Kadi Kadi - 5:23
B2 - Yulli - 5:17
B3 - Bakoye - 4:06
B4 - Amandrai - 9:40
Credits
Kora [Calabash] - Toumani Diabate (tracks: B4)
Mixed By - Zuni
Producer - Nick Gold
Recorded By - David Stevens (tracks: A1 To A3, B1, B2), John Hadden (tracks: A4, B3), Philippe Bertrand (tracks: B4)
Vocals, Guitar, Kora [Calabash], Bongos - Ali Farka Toure
Written-By - A. F. Toure (tracks: A1, A2, A4, B1 to B4), Traditional (tracks: A3)
Notes
Ali Farka sings in the languages of the peoples of Mali.
TIMBARMA. Once there was a woman called Timbarma who was pregnant. She wanted to have a piece of patterned cloth of green, orange, red and yellow. This cloth is worn by many women in Mali and not to have it is a sign that you are not valuable. The woman's husband was poor and could not afford to buy the cloth and when the baby was born the pattern appeared on its arm. The husband was very upset- he ought to have borrowed money in order to buy the cloth. A husband must take great care of his wife when she is pregnant and give her anything she asks.
TIMBARMA is sung in Maur and is a traditional song throughout the Timbukto(sic.) and western Mauritanian region
SINGYA means mother's milk. If you share the same milk you must never betray one another. Brother must love brother. It's a piece of Advise Ali Farka gives to prevent incidents. 'Hand in Hand, one heart, one faith.'
SINGYA is a Malinke song. The tune was composed by Sira Mory Diabate.
NAWIYE is a very old traditional praise song of Timbuktoo. Sung to noble hosts at baptisms and social events. 'You cannot be a real noble if you are a liar or if you are treacherous. To be a good noble you must be sincere. He who has nothing can be nothing and do nothing and cannot invite us.' Sung in Songhai.
BAKOYTEREYE. Drugs do not fill your stomach or quench your thirst. So why take them and destroy your life.
BAKOYTEREYE is sung in Songhai.
KADI KADI. Kadi was a girl for whom Ali Farka hap deep affection. During a concert in 1974 she gave him a gold chain. The next day he went to find out her name and her family. He thanked her for the gift and tried to return it but she would not take it back. He went home, took up his guitar and composed this song. Kadi was touched to hear it. 'If you (Kadi) go to Paris they say to you "Bonjour'; if you go to Abidjan they say 'Bonne arrivee' and all because you are beautiful and good.
KADI KADI is sung in Bambara.
Yulli is a song about camels. The camel has all the attributes that make for a beautiful woman or a handsome man. It has a long neck, big eyes and is tall. It even has nice feet. But still the camel is ugly. Even its shadow is ugly. However the camel is the toughest animal in all the world because it is blessed by the Prophet. So you have to accept it wholeheartedly.
YULLI is sung in Fula and was composed by Ali Farka in 1963.
BAKOYE. If you feel love for someone you have to show it. Even if your friends and family disapprove, if you have love in you, you must let it out.
BAKOYE is adapted from an Arabic praise song and is sung in Songhai.
AMANDRAI-My little sister. A love song. If I want to see my friend I can't enter her house. I play or sing something and she will know I'm there. She finds a way to meet me. I sing songs to flatter her and express the love between us. The I must return home(the distance between Tamashek villages is great) in order to wake early for work. All day I think of the girl.
AMANDRAI is sung in Tamashek. Ali Farka composed the words and the music is typically Tamashek.
Recorded at the Fire House studio, London on October, 1987 by David Stevens. Mixed by Zuni, assit.: Mike Campbell.
Bakoytereye & Bakoye recorded at Capital Radio Studios, London on September 13, 1987 by Phillippe Bertrand.
Amandrai recorded during performance for Crossing The Border Festival at the Town and Country Club, London on October 5 1987 by John Hadden.
Produced by World Circuit, Nick Gold
Post production: John Hadden- Direct metal mastered from digital tapes.
Design & Artwork: Michel Koven.
Photos: Front- Dave Peabody, Back- Jak Kilby.
Thanks to Ian Anderson, Toumani, David Jones, Andy Kershaw, & to Arts Worldwide.
©World Circuit 1987
Made in England
Distributed by The Cartel via Revolver
Barcode and Other Identifiers
Matrix / Runout (Side A, Stamped): DD WCB 007A-1C-1-1-
Matrix / Runout (Side B, Stamped): DD WCB 007B-1C-1-1-
Источник оцифровки: третьим лицом
Код класса состояния винила: Ex
Устройство воспроизведения: Technics SP 15
Головка звукоснимателя: Ortofon Concorde OM 30 MM
Предварительный усилитель: Pro-Ject Tube Box II
АЦП: Tascam US-144 external USB 2.0
Программа-оцифровщик: WaveLab 5.01
Обработка: ClickRepair
Доп. информация:
foobar2000 1.0.3 / Dynamic Range Meter 1.1.1
log date: 2011-12-12 17:25:29
--------------------------------------------------------------------------------
Analyzed: Ali Farka Toure / Ali Farka Toure
--------------------------------------------------------------------------------
DR Peak RMS Duration Track
--------------------------------------------------------------------------------
DR14 -2.23 dB -19.70 dB 5:08 01-Timbarma
DR14 -1.00 dB -19.90 dB 5:26 02-Singya
DR16 -2.38 dB -23.93 dB 5:41 03-Nawiye
DR17 -0.65 dB -19.47 dB 5:06 04-Bakoytereye
DR16 -3.89 dB -23.51 dB 5:27 05-Kadi Kadi
DR17 -0.48 dB -21.60 dB 5:20 06-Yulli
DR13 -3.54 dB -20.94 dB 4:11 07-Bakoye
DR20 -0.43 dB -23.87 dB 10:00 08-Amandrai
--------------------------------------------------------------------------------
Number of tracks: 8
Official DR value: DR16
Samplerate: 96000 Hz
Channels: 2
Bits per sample: 24
Bitrate: 2414 kbps
Codec: FLAC
================================================================================
Не забывайте говорить Спасибо. Не уходите с раздачи!   
Торрент: Зарегистрирован [23 окт 2016, 08:11]
Статус:
Проверен
 
.torrent скачан: 0 раз
Хэш: 17974ba25971b6443b1fcd98d546416377ee68f7
Размер: 837.25 МБ (877 917 366 байт)
   Стать Автором раздачи
   
Цитата

Вернуться в Фольклор, народная и этническая музыка (оцифровки)

Кто сейчас на конференции

Сейчас эту тему просматривают: нет зарегистрированных пользователей и гости: 1