(folk) Inti Illimani - Canto de Pueblos Andinos [LP] [16/44] - 1981, FLAC (tracks+.cue), lossless

 Статистика раздачи 
Размер: 214.32 МБ   |  Зарегистрирован: 27 ноя 2011, 16:50   |   .torrent скачан: 0 раз
Сидеров: 0  [ 0 байт/сек ]     Личеров: 0  [ 0 байт/сек ]  
  
Аватара пользователя
Главный редактор
Главный редактор
 
Раздал: 90.01 ТБ
Скачал: 3.78 ТБ
Ратио: 24.248
Сообщения: 274187
Стаж: 9 лет 1 месяц 18 дней
Откуда: Санкт-Петербург

Inti Illimani

Canto de Pueblos Andinos
Жанр: folk
Страна-производитель диска: Espana
Год издания диска: 1981
Издатель (лейбл): Movieplay
Номер по каталогу: 17 3010/4
Страна: Chili
Аудиокодек: FLAC (*.flac)
Тип рипа: tracks+.cue
Битрейт аудио: lossless
Продолжительность: 34:02
Источник (релизер): Fran Solo
Наличие сканов в содержимом раздачи: да
Vinyl rip: José Félix
Turntable: Stage Line DJP 104 USB
Cartridge: Pickering DTL-2S
Mastered and audio correction: Fran Solo
Software: Macromedia SoundEdit, XLD Lossless.

Side A
1. Huajra
2. Tema de la quebrada de Humahuaca
3. Dolencias
4. Lamento del indio
5. Taita salasaca
6. La mariposa
Side B
7. Tinku
8. Amores hallarás
9. Papel de plata
10. Flor de Sancayo
11. Mis llamitas
12. Sicuriadas
Код: Выделить всё
TITLE "Canto de Pueblos Andinos (LP)"
PERFORMER "Inti-Illimani"
REM GENRE "Andina"
REM DATE "1981"
REM COMMENT "Jose Felix-Fran Solo"
REM DISCID 9C08990C
FILE "Canto de Pueblos Andinos-LP.flac" WAVE
  TRACK 01 AUDIO
    TITLE "LADO 1: Huajra"
    INDEX 01 00:00:00
  TRACK 02 AUDIO
    TITLE "Tema de la quebrada de Humahuaca"
    INDEX 01 03:53:00
  TRACK 03 AUDIO
    TITLE "Dolencias"
    INDEX 01 06:56:00
  TRACK 04 AUDIO
    TITLE "Lamento del indio"
    INDEX 01 10:08:40
  TRACK 05 AUDIO
    TITLE "Taita salasaca"
    INDEX 01 12:26:47
  TRACK 06 AUDIO
    TITLE "La mariposa"
    INDEX 01 14:43:00
  TRACK 07 AUDIO
    TITLE "LADO 2: Tinku"
    INDEX 01 16:56:30
  TRACK 08 AUDIO
    TITLE "Amores hallaras"
    INDEX 01 20:27:40
  TRACK 09 AUDIO
    TITLE "Papel de plata"
    INDEX 01 22:31:50
  TRACK 10 AUDIO
    TITLE "Flor de Sancayo"
    INDEX 01 25:18:20
  TRACK 11 AUDIO
    TITLE "Mis llamitas"
    INDEX 01 27:54:50
  TRACK 12 AUDIO
    TITLE "Sicuriadas"
    INDEX 01 30:45:30
Код: Выделить всё
-----------------------
DON'T MODIFY THIS FILE
-----------------------
PERFORMER: auCDtect Task Manager, ver. 1.5.1RC4 build 1.5.1.5
Copyright (c) 2008-2010 y-soft. All rights reserved
[url=http://y-soft.org]http://y-soft.org[/url]
ANALYZER: auCDtect: CD records authenticity detector, version 0.8.2
Copyright (c) 2004 Oleg Berngardt. All rights reserved.
Copyright (c) 2004 Alexander Djourik. All rights reserved.
FILE: Canto de Pueblos Andinos-LP.flac
  Size: 212828853 Hash: 8CB64655E4A4570BAC593FE6C0847CE9 Accuracy: -m0
  Conclusion: CDDA 100%
  Signature: 01BE4C2876313F377ED1622B2C0D580FC4394F49
This's Inti-Illimani's beginning, this LP is a Spanish 1981's reprint., this LP is a Spanish 1981's reissue. Music is simply exquisite, pieces from different South America's regions. Is that the influence of this group in the Andean area is remarkable. Good vocals, good instrumentation, nothing to say.
Fran Solo
Spanish.
Estos son los comienzos de "Inti-Illimani", este LP es una reedición española de 1981. La música es simplemente exquisita, piezas de distintas regiones de Sudamérica. Es que la influencia de este conjunto, en el ámbito andino es notable. Buenas voces, buena instrumentación, nada que decir.
Fran Solo
Не забывайте говорить Спасибо. Не уходите с раздачи!   
Торрент: Зарегистрирован [27 ноя 2011, 16:50]
Статус:
Проверен
 
.torrent скачан: 0 раз
Хэш: b5277cfd8894f44440909d0e1e19efc7faefb28c
Размер: 214.32 МБ (224 728 699 байт)
   Стать Автором раздачи
   
Цитата

Вернуться в Фольклор, народная и этническая музыка (оцифровки)

Кто сейчас на конференции

Сейчас эту тему просматривают: нет зарегистрированных пользователей и гости: 1