[HUN] (Ethnic / Gypsy) Sandor Lakatos - Master of the Gipsy Violin (Vinyl) - CDDA

 Статистика раздачи 
Размер: 314.19 МБ   |  Зарегистрирован: 24 янв 2009, 10:45   |   .torrent скачан: 0 раз
Сидеров: 0  [ 0 байт/сек ]     Личеров: 0  [ 0 байт/сек ]  
  
Аватара пользователя
Главный редактор
Главный редактор
 
Раздал: 90.01 ТБ
Скачал: 3.78 ТБ
Ратио: 24.248
Сообщения: 274043
Стаж: 9 лет 1 месяц 16 дней
Откуда: Санкт-Петербург

Sandor Lakatos - Master of the Gipsy Violin (Vinyl) - CDDA
Жанр: Ethnic, Classic
Битрейт аудио: CDDA / 16 bit / 44100 Hz / 1411 bit/s
Формат релиза: APE, tracks
Продолжительность: 52:07
Список композиций:
1. Gipsy band leader's fantasy - 4:07
2. Verbunk in A major - Csardas rhapsody - 3:15
3. Lament in F minor - Six days of song - 3:45
4. Irene serenade - 2:05
5. Hora - 2:24
6. Lavotta serenade - 2:34
7. The sheperd's hora - 1:49
8. Third inn scene - 6:24
9. Now you are talking to somebody else - 7:05
10. A letter has arrived from my little village - 5:41
11. Stately Palotas dance - 3:08
12. I asked a flower - 4:53
13. It was night when I was born - 4:57
Скачано из сети. Трансфер с винила. Большие щелчки в начале, потом нет. Звучит все очень хорошо. Наверное стоит качать только любителям виртуозной игре на скрипки и тем кто любить игру Шандора Лакатоша. Его записи в сети очень редкие.
Код: Выделить всё
Exact Audio Copy V0.99 prebeta 4 from 23. January 2008
EAC extraction logfile from 4. February 2008, 17:43
Lakatos Sandor / Master of the gipsy violin
Used drive  : MATSHITADVD-RAM UJ-850   Adapter: 0  ID: 0
Read mode               : Secure
Utilize accurate stream : Yes
Defeat audio cache      : Yes
Make use of C2 pointers : No
Read offset correction                      : 102
Overread into Lead-In and Lead-Out          : Yes
Fill up missing offset samples with silence : Yes
Delete leading and trailing silent blocks   : No
Null samples used in CRC calculations       : Yes
Used interface                              : Native Win32 interface for Win NT & 2000
Gap handling                                : Appended to previous track
Used output format              : User Defined Encoder
Selected bitrate                : 1024 kBit/s
Quality                         : High
Add ID3 tag                     : No
Command line compressor         : C:\Program Files\Exact Audio Copy\Wapet 0.6\wapet.exe
Additional command line options : %d -t "Artist=%a" -t "Title=%t" -t "Album=%g" -t "Year=%y" -t "Track=%n" -t "Genre=%m" "C:\Program Files\Monkey's Audio\MAC.exe" %s %d -c2000
TOC of the extracted CD
     Track |   Start  |  Length  | Start sector | End sector
    ---------------------------------------------------------
        1  |  0:00.00 |  4:07.24 |         0    |    18548
        2  |  4:07.24 |  3:15.36 |     18549    |    33209
        3  |  7:22.60 |  3:45.05 |     33210    |    50089
        4  | 11:07.65 |  2:05.37 |     50090    |    59501
        5  | 13:13.27 |  2:24.24 |     59502    |    70325
        6  | 15:37.51 |  2:33.45 |     70326    |    81845
        7  | 18:11.21 |  1:49.37 |     81846    |    90057
        8  | 20:00.58 |  6:24.27 |     90058    |   118884
        9  | 26:25.10 |  7:04.59 |    118885    |   150743
       10  | 33:29.69 |  5:41.33 |    150744    |   176351
       11  | 39:11.27 |  3:08.03 |    176352    |   190454
       12  | 42:19.30 |  4:52.72 |    190455    |   212426
       13  | 47:12.27 |  4:57.00 |    212427    |   234701
Track  1
     Filename E:\01 Gipsy band leader's fantasy.wav
     Pre-gap length  0:00:02.00
     Peak level 100.0 %
     Track quality 100.0 %
     Copy CRC 745EDE3F
     Copy OK
Track  2
     Filename E:\02 Verbunk in A major - Csardas rhapsody.wav
     Pre-gap length  0:00:02.00
     Peak level 100.0 %
     Track quality 100.0 %
     Copy CRC A49DA9B9
     Copy OK
Track  3
     Filename E:\03 Lament in F minor - Six days of song.wav
     Pre-gap length  0:00:02.00
     Peak level 100.0 %
     Track quality 100.0 %
     Copy CRC 391CDCBF
     Copy OK
Track  4
     Filename E:\04 Irene serenade.wav
     Pre-gap length  0:00:02.00
     Peak level 100.0 %
     Track quality 100.0 %
     Copy CRC DBDED3D8
     Copy OK
Track  5
     Filename E:\05 Hora.wav
     Pre-gap length  0:00:02.00
     Peak level 100.0 %
     Track quality 100.0 %
     Copy CRC CC7BA1FB
     Copy OK
Track  6
     Filename E:\06 Lavotta serenade.wav
     Pre-gap length  0:00:02.00
     Peak level 100.0 %
     Track quality 100.0 %
     Copy CRC BB29675F
     Copy OK
Track  7
     Filename E:\07 The sheperd's hora.wav
     Pre-gap length  0:00:02.00
     Peak level 98.8 %
     Track quality 100.0 %
     Copy CRC 4DEC2D50
     Copy OK
Track  8
     Filename E:\08 Third inn scene.wav
     Pre-gap length  0:00:02.00
     Peak level 100.0 %
     Track quality 100.0 %
     Copy CRC 3D1937D9
     Copy OK
Track  9
     Filename E:\09 Now you are talking to somebody else.wav
     Pre-gap length  0:00:02.00
     Peak level 98.8 %
     Track quality 100.0 %
     Copy CRC 76138313
     Copy OK
Track 10
     Filename E:\10 A letter has arrived from my little village.wav
     Pre-gap length  0:00:02.00
     Peak level 100.0 %
     Track quality 100.0 %
     Copy CRC 7FED680E
     Copy OK
Track 11
     Filename E:\11 Stately Palotas dance.wav
     Pre-gap length  0:00:02.00
     Peak level 100.0 %
     Track quality 100.0 %
     Copy CRC A8EBACFB
     Copy OK
Track 12
     Filename E:\12 I asked a flower.wav
     Peak level 100.0 %
     Track quality 100.0 %
     Copy CRC 624D312D
     Copy OK
Track 13
     Filename E:\13 It was night when I was born.wav
     Pre-gap length  0:00:02.00
     Suspicious position 0:04:56
     Peak level 100.0 %
     Track quality 99.7 %
     Copy CRC 51AF5061
     Copy finished
No errors occurred
End of status report
Код: Выделить всё
REM GENRE Violin, Ethnic, Classic
PERFORMER "Lakatos Sandor"
TITLE "Master of the Gipsy Violin"
FILE "01 Gipsy band leader's fantasy.wav" WAVE
  TRACK 01 AUDIO
    TITLE "Gipsy band leader's fantasy"
    INDEX 01 00:00:00
FILE "02 Verbunk in A major - Csardas rhapsody.wav" WAVE
  TRACK 02 AUDIO
    TITLE "Verbunk in A major - Csardas rhapsody"
    INDEX 01 00:00:00
FILE "03 Lament in F minor - Six days of song.wav" WAVE
  TRACK 03 AUDIO
    TITLE "Lament in F minor - Six days of song"
    INDEX 01 00:00:00
FILE "04 Irene serenade.wav" WAVE
  TRACK 04 AUDIO
    TITLE "Irene serenade"
    INDEX 01 00:00:00
FILE "05 Hora.wav" WAVE
  TRACK 05 AUDIO
    TITLE "Hora"
    INDEX 01 00:00:00
FILE "06 Lavotta serenade.wav" WAVE
  TRACK 06 AUDIO
    TITLE "Lavotta serenade"
    INDEX 01 00:00:00
FILE "07 The sheperd's hora.wav" WAVE
  TRACK 07 AUDIO
    TITLE "The sheperd's hora"
    INDEX 01 00:00:00
FILE "08 Third inn scene.wav" WAVE
  TRACK 08 AUDIO
    TITLE "Third inn scene"
    INDEX 01 00:00:00
FILE "09 Now you are talking to somebody else.wav" WAVE
  TRACK 09 AUDIO
    TITLE "Now you are talking to somebody else"
    INDEX 01 00:00:00
FILE "10 A letter has arrived from my little village.wav" WAVE
  TRACK 10 AUDIO
    TITLE "A letter has arrived from my little village"
    INDEX 01 00:00:00
FILE "11 Stately Palotas dance.wav" WAVE
  TRACK 11 AUDIO
    TITLE "Stately Palotas dance"
    INDEX 01 00:00:00
FILE "12 I asked a flower.wav" WAVE
  TRACK 12 AUDIO
    TITLE "I asked a flower"
    INDEX 01 00:00:00
FILE "13 It was night when I was born.wav" WAVE
  TRACK 13 AUDIO
    TITLE "It was night when I was born"
    INDEX 01 00:00:00
Код: Выделить всё
auCDtect: CD records authenticity detector, version 0.8.2
Copyright (c) 2004 Oleg Berngardt. All rights reserved.
Copyright (c) 2004 Alexander Djourik. All rights reserved.
------------------------------------------------------------
Processing file: [01 Gipsy band leader's fantasy.wav]
Detected average hi-boundary frequency: 2.003910e+004 Hz
Detected average lo-boundary frequency: 1.197551e+004 Hz
Detected average hi-cut frequency: 2.163747e+004 Hz
Detected average lo-cut frequency: 1.176637e+004 Hz
Maximum probablis boundary frequency: 2.189100e+004 Hz
Coefficient of nonlinearity of a phase: 2.279256e-001
First order smothness: 4.420893e-001
Second order smothness: 7.517033e-001
------------------------------------------------------------
This track looks like CDDA with probability 100%
------------------------------------------------------------
Processing file: [02 Verbunk in A major - Csardas rhapsody.wav]
Detected average hi-boundary frequency: 2.018502e+004 Hz
Detected average lo-boundary frequency: 1.245367e+004 Hz
Detected average hi-cut frequency: 2.157418e+004 Hz
Detected average lo-cut frequency: 1.368808e+004 Hz
Maximum probablis boundary frequency: 2.189100e+004 Hz
Coefficient of nonlinearity of a phase: 7.812297e-001
First order smothness: 3.896353e-001
Second order smothness: 8.119002e-001
------------------------------------------------------------
This track looks like CDDA with probability 99%
------------------------------------------------------------
Processing file: [03 Lament in F minor - Six days of song.wav]
Detected average hi-boundary frequency: 2.014602e+004 Hz
Detected average lo-boundary frequency: 1.182582e+004 Hz
Detected average hi-cut frequency: 2.162486e+004 Hz
Detected average lo-cut frequency: 1.230198e+004 Hz
Maximum probablis boundary frequency: 2.189100e+004 Hz
Coefficient of nonlinearity of a phase: 1.042927e+000
First order smothness: 4.279767e-001
Second order smothness: 7.797669e-001
------------------------------------------------------------
This track looks like CDDA with probability 100%
------------------------------------------------------------
Processing file: [04 Irene serenade.wav]
Detected average hi-boundary frequency: 2.014270e+004 Hz
Detected average lo-boundary frequency: 1.079071e+004 Hz
Detected average hi-cut frequency: 2.165150e+004 Hz
Detected average lo-cut frequency: 1.203102e+004 Hz
Maximum probablis boundary frequency: 2.168700e+004 Hz
Coefficient of nonlinearity of a phase: 7.760460e-001
First order smothness: 5.669173e-001
Second order smothness: 7.759398e-001
------------------------------------------------------------
This track looks like CDDA with probability 100%
------------------------------------------------------------
Processing file: [05 Hora.wav]
Detected average hi-boundary frequency: 2.021850e+004 Hz
Detected average lo-boundary frequency: 1.228106e+004 Hz
Detected average hi-cut frequency: 2.168556e+004 Hz
Detected average lo-cut frequency: 1.317299e+004 Hz
Maximum probablis boundary frequency: 2.189100e+004 Hz
Coefficient of nonlinearity of a phase: 1.181236e+000
First order smothness: 4.148728e-001
Second order smothness: 7.853881e-001
------------------------------------------------------------
This track looks like CDDA with probability 99%
------------------------------------------------------------
Processing file: [06 Lavotta serenade.wav]
Detected average hi-boundary frequency: 2.013434e+004 Hz
Detected average lo-boundary frequency: 9.984796e+003 Hz
Detected average hi-cut frequency: 2.167066e+004 Hz
Detected average lo-cut frequency: 1.362355e+004 Hz
Maximum probablis boundary frequency: 2.189100e+004 Hz
Coefficient of nonlinearity of a phase: 1.032404e+000
First order smothness: 5.021433e-001
Second order smothness: 8.058788e-001
------------------------------------------------------------
This track looks like CDDA with probability 100%
------------------------------------------------------------
Processing file: [07 The sheperd's hora.wav]
Detected average hi-boundary frequency: 2.015403e+004 Hz
Detected average lo-boundary frequency: 1.127341e+004 Hz
Detected average hi-cut frequency: 2.159067e+004 Hz
Detected average lo-cut frequency: 1.325391e+004 Hz
Maximum probablis boundary frequency: 2.189100e+004 Hz
Coefficient of nonlinearity of a phase: 8.052323e-001
First order smothness: 4.810017e-001
Second order smothness: 7.720207e-001
------------------------------------------------------------
This track looks like CDDA with probability 100%
------------------------------------------------------------
Processing file: [08 Third inn scene.wav]
Detected average hi-boundary frequency: 2.009494e+004 Hz
Detected average lo-boundary frequency: 1.206358e+004 Hz
Detected average hi-cut frequency: 2.156474e+004 Hz
Detected average lo-cut frequency: 1.036220e+004 Hz
Maximum probablis boundary frequency: 2.189100e+004 Hz
Coefficient of nonlinearity of a phase: 1.389728e+000
First order smothness: 3.949478e-001
Second order smothness: 7.289288e-001
------------------------------------------------------------
This track looks like CDDA with probability 99%
------------------------------------------------------------
Processing file: [09 Now you are talking to somebody else.wav]
Detected average hi-boundary frequency: 2.006497e+004 Hz
Detected average lo-boundary frequency: 1.276732e+004 Hz
Detected average hi-cut frequency: 2.158242e+004 Hz
Detected average lo-cut frequency: 1.141021e+004 Hz
Maximum probablis boundary frequency: 2.189100e+004 Hz
Coefficient of nonlinearity of a phase: 9.266928e-001
First order smothness: 3.565466e-001
Second order smothness: 7.691125e-001
------------------------------------------------------------
This track looks like CDDA with probability 99%
------------------------------------------------------------
Processing file: [10 A letter has arrived from my little village.wav]
Detected average hi-boundary frequency: 2.009999e+004 Hz
Detected average lo-boundary frequency: 1.323294e+004 Hz
Detected average hi-cut frequency: 2.157766e+004 Hz
Detected average lo-cut frequency: 1.070330e+004 Hz
Maximum probablis boundary frequency: 2.189100e+004 Hz
Coefficient of nonlinearity of a phase: 9.822550e-001
First order smothness: 3.228454e-001
Second order smothness: 7.502052e-001
------------------------------------------------------------
This track looks like CDDA with probability 100%
------------------------------------------------------------
Processing file: [11 Stately Palotas dance.wav]
Detected average hi-boundary frequency: 2.006443e+004 Hz
Detected average lo-boundary frequency: 1.260792e+004 Hz
Detected average hi-cut frequency: 2.156202e+004 Hz
Detected average lo-cut frequency: 1.149549e+004 Hz
Maximum probablis boundary frequency: 2.189100e+004 Hz
Coefficient of nonlinearity of a phase: 5.920635e-001
First order smothness: 3.414878e-001
Second order smothness: 7.543684e-001
------------------------------------------------------------
This track looks like CDDA with probability 100%
------------------------------------------------------------
Processing file: [12 I asked a flower.wav]
Detected average hi-boundary frequency: 2.013686e+004 Hz
Detected average lo-boundary frequency: 1.280101e+004 Hz
Detected average hi-cut frequency: 2.158115e+004 Hz
Detected average lo-cut frequency: 1.152851e+004 Hz
Maximum probablis boundary frequency: 2.189100e+004 Hz
Coefficient of nonlinearity of a phase: 5.837336e-001
First order smothness: 3.249282e-001
Second order smothness: 7.593361e-001
------------------------------------------------------------
This track looks like CDDA with probability 100%
------------------------------------------------------------
Processing file: [13 It was night when I was born.wav]
Detected average hi-boundary frequency: 2.005562e+004 Hz
Detected average lo-boundary frequency: 1.333374e+004 Hz
Detected average hi-cut frequency: 2.158957e+004 Hz
Detected average lo-cut frequency: 9.206343e+003 Hz
Maximum probablis boundary frequency: 2.189100e+004 Hz
Coefficient of nonlinearity of a phase: 7.621401e-001
First order smothness: 2.977792e-001
Second order smothness: 7.425712e-001
------------------------------------------------------------
This track looks like CDDA with probability 99%
Не забывайте говорить Спасибо. Не уходите с раздачи!   
Торрент: Зарегистрирован [24 янв 2009, 10:45]
Статус:
Проверен
 
.torrent скачан: 0 раз
Хэш: c14f686163ae6fd1f51415199108e17679155a51
Размер: 314.19 МБ (329 452 237 байт)
   Стать Автором раздачи
   
Цитата
  • Похожие торренты
    Ответы
    Просмотры
    Последнее сообщение

Вернуться в Фольклор, народная и этническая музыка (оцифровки)

Кто сейчас на конференции

Сейчас эту тему просматривают: нет зарегистрированных пользователей и гости: 1