(Afrobeat, African) [LP] [24/96] King Sunny Ade And His African Beats - Synchro System - 1983, FLAC (tracks+.cue)

 Статистика раздачи 
Размер: 792.06 МБ   |  Зарегистрирован: 07 окт 2017, 08:10   |   .torrent скачан: 0 раз
Сидеров: 0  [ 0 байт/сек ]     Личеров: 0  [ 0 байт/сек ]  
  
Аватара пользователя
Главный редактор
Главный редактор
 
Раздал: 90.01 ТБ
Скачал: 3.78 ТБ
Ратио: 24.248
Сообщения: 273621
Стаж: 9 лет 1 месяц 12 дней
Откуда: Санкт-Петербург

King Sunny Adé And His African Beats - Synchro System
Жанр: Afrobeat, African
Носитель: LP
Год выпуска: 1983
Лейбл: Mango - MLPS 9737
Страна-производитель: USA
Аудио кодек: FLAC
Тип рипа: tracks+.cue
Формат записи: 32/96
Формат раздачи: 24/96
Продолжительность: 00:39:14
Треклист:
Side 1
A1 - Synchro Feelings - Ilako - 5:37
A2 - Mo Ti Mo - 5:30
A3 - Penkele - 3:59
A4 - Maajo - 4:07
Side 2
B1 - Synchro System - 6:27
B2 - E Saiye Re - 3:28
B3 - Tolongo - 3:18
B4 - E Wele - 5:03
B5 - Synchro Reprise - 1:27
Companies, etc.
Record Company - Mango Records
Phonographic Copyright (p) - Island Records Ltd.
Copyright (c) - Island Records Ltd.
Published By - Island Music, Inc.
Pressed By - Hauppauge Record Manufacturing Ltd.
Recorded At - Music Works
Mixed At - Fallout Shelter
Credits
Agogô - Fatoke Abiodun
Bass - Jelili Lawal
Congas [Congos] - Shina Abiodun
Coordinator - Martin Meppiel
Drums - Moses Akanbi
Engineer [Assistant] - Catherine Lesevre, Steve Street
Guitar - Bob Ohiri, Segun Hori
Guitar, Guest - Elder Osei
Keyboards - Jonah Bonsu (tracks: B3)
Keyboards, Lead Guitar, Vocals - Sunny Adé
Maracas - Michael Babalola
Mixed By - Godwin Logie
Percussion [Motimo] - Elder Osei Bonsu
Photography By [Back Cover] - Ashworth
Photography By [Front Cover] - Lynn Goldsmith
Producer, Keyboards, Management - Martin Meissonnier
Rhythm Guitar - John Akpan
Shekere - Gani Alashe
Steel Guitar - Demola Adepoju
Talking Drum [2nd] - Rasaki Aladokun
Talking Drum [Lead] - Alhaji Timmy Olaitan
Vocals - Femi Owomoyela, Jacob Ajakaye, Matthew Olojede, Niyi Falaye, Tunde Demiola
Written-By - King Sunny Adé
Notes
Mango Records Division of Island Records Inc.
Barcode and Other Identifiers
Matrix / Runout (Runout side A · Variant 1): MLPS-9737-A-PRO-R1-1-2-2 STERLING
Matrix / Runout (Runout side B · Variant 1): MLPS-9737-B-PRO-R-1-1-1
Matrix / Runout (Runout side A · Variant 2): MLPS-9737-A-HRM2 STERLING A2 ⟷
Matrix / Runout (Runout side B · Variant 2): MLPS-9737-B-HRM2 STERLING B- ⟷
Rights Society: BMI
Matrix / Runout (Runout Side A etched - variant 3): A <-> MLPS-9737-A - HRM 3 ☆
Matrix / Runout (Runout Side B etched - variant 3): A-1 <-> MLPS-9737-B - HRM 1 ☆
Matrix / Runout (Runout both sides stamped - variant 3): STERLING
Источник оцифровки: третьим лицом
Код класса состояния винила: Ex
Устройство воспроизведения: Technics SL 1210 MKII
Головка звукоснимателя: Denon DL304
Предварительный усилитель: NAD 3130
АЦП: M-Audio Profire 610
Программа-оцифровщик: Adobe audition 3.0
Обработка: de-clicking in Adobe audition 3.0
Доп. информация:
Dynamic Range Analysis:
——————————————————————————–
Analyzed: King Sunny Ade & His African Beats / Synchro System
——————————————————————————–
DR Peak RMS Duration Track
——————————————————————————–
DR12 -0.33 dB -16.42 dB 3:29 ?-E Saiye Re
DR14 -2.36 dB -18.53 dB 5:06 ?-E Wele
DR12 -1.44 dB -16.94 dB 4:10 ?-Maajo
DR14 -0.58 dB -17.51 dB 5:31 ?-Mo Ti Mo
DR14 -2.34 dB -19.20 dB 4:00 ?-Penkele
DR14 -0.98 dB -17.78 dB 5:38 ?-Synchro Feelings-Ilako
DR13 -1.94 dB -17.12 dB 1:30 ?-Synchro Reprise
DR14 -1.97 dB -17.93 dB 6:28 ?-Synchro System
DR14 -1.08 dB -18.00 dB 3:19 ?-Tolongo
——————————————————————————–
Number of tracks: 9
Official DR value: DR13
Samplerate: 44100 Hz
Channels: 2
Bits per sample: 16
Bitrate: 834 kbps
Codec: FLAC
================================================================================
Не забывайте говорить Спасибо. Не уходите с раздачи!   
Торрент: Зарегистрирован [07 окт 2017, 08:10]
Статус:
Проверен
 
.torrent скачан: 0 раз
Хэш: 279a7591492769508bfb5ba23c4eee5c2456d9db
Размер: 792.06 МБ (830 536 287 байт)
   Стать Автором раздачи
   
Цитата

Вернуться в Фольклор, народная и этническая музыка (оцифровки)

Кто сейчас на конференции

Сейчас эту тему просматривают: нет зарегистрированных пользователей и гости: 1