(Country Rock, Soft Rock) [LP] [24/96] John Denver - Rocky Mountain High - 1972, FLAC (image+.cue)

 Статистика раздачи 
Размер: 707.76 МБ   |  Зарегистрирован: 29 июн 2019, 08:20   |   .torrent скачан: 0 раз
Сидеров: 0  [ 0 байт/сек ]     Личеров: 0  [ 0 байт/сек ]  
  
Аватара пользователя
Главный редактор
Главный редактор
 
Раздал: 90.01 ТБ
Скачал: 3.78 ТБ
Ратио: 24.248
Сообщения: 274856
Стаж: 9 лет 1 месяц 20 дней
Откуда: Санкт-Петербург

John Denver - Rocky Mountain High (1972)

Жанр: Country Rock, Soft Rock
Носитель: LP
Год выпуска: 1972
Лейбл: RCA Victor - LSP-4731
Страна-производитель: US
Аудио кодек: FLAC
Тип рипа: image+.cue
Формат записи: 24/192
Формат раздачи: 24/96
Продолжительность: 00:37:50
Тэги в .cue: прописаны
Источник оцифровки: автором раздачи
Код класса состояния винила: VG
Устройство воспроизведения: Электроника ЭП 017С
Головка звукоснимателя: ГЗМ-053
Предварительный усилитель: AMX - 100 (LTO®)
АЦП: ESI Juli@
Программа-оцифровщик: Adobe Audition
Обработка: удаление артефактов

Джон Денвер был одним из пяти самых продаваемых исполнителей всех времен с 14 золотыми и восемью платиновыми альбомами в Соединенных Штатах и был популярен во всем мире. Джон Денвер был введен в Зал славы авторов песен в 1996 году.
Родился 31 декабря 1943 года в Розуэлле, Нью-Мексико.
Погиб в Тихоокеанской роще, Калифорния. 12 октября 1997 года,
когда пилотируемый им самолет с одним двигателем упал в море.
Ему было 53 года. Денвер был единственным пассажиром самолета. Предположительной причиной авиакатастрофы
стал низкий заряд топлива. Слова знаменитой песни Джона Денвера «Rocky Mountain High» выгравированы на памятном знаке в его честь в штате Колорадо США.

A1 Rocky Mountain High
A2 Mother Nature's Son
A3 Paradise
A4 For Baby (For Bobbie)
A5 Darcy Farrow
A6 Prisoners
B1 Goodbye Again
Season Suite
B2 Summer
B3 Fall
B4 Winter
B5 Late Winter, Early Spring (When Everybody Goes To Mexico)
B6 Spring
Код: Выделить всё
foobar2000 1.1.3 / Dynamic Range Meter 1.1.1
log date: 2019-06-20 20:52:48
--------------------------------------------------------------------------------
Analyzed: John Denver / Rocky Mountain High
--------------------------------------------------------------------------------
DR         Peak         RMS     Duration Track
--------------------------------------------------------------------------------
DR12      -0.43 dB   -15.32 dB      4:50 ?-A1 Rocky Mountain High
DR11      -1.58 dB   -14.43 dB      2:32 ?-A2 Mother Nature's Son
DR12      -0.68 dB   -15.98 dB      2:17 ?-A3 Paradise
DR11      -1.61 dB   -14.30 dB      3:00 ?-A4 For Baby (For Bobbie)
DR14      -0.96 dB   -18.04 dB      4:26 ?-A5 Darcy Farrow
DR12      -0.10 dB   -14.17 dB      3:46 ?-A6 Prisoners
DR12      -0.10 dB   -14.77 dB      3:45 ?-B1 Goodbye Again
DR10      -0.10 dB   -13.88 dB      2:52 ?-B2 Summer
DR13      -3.00 dB   -19.70 dB      1:36 ?-B3 Fall
DR10      -0.69 dB   -14.41 dB      1:38 ?-B4 Winter
DR13      -4.94 dB   -21.05 dB      4:00 ?-B5 Late Winter, Early Spring (When Everybody Goes To Mexico)
DR10      -0.99 dB   -15.59 dB      3:07 ?-B6 Spring
--------------------------------------------------------------------------------
Number of tracks:  12
Official DR value: DR12
Samplerate:        96000 Hz
Channels:          2
Bits per sample:   24
Bitrate:           2465 kbps
Codec:             FLAC
================================================================================

Код: Выделить всё
REM GENRE "Country, Soft Rock"
REM DATE "1972"
REM COMMENT "Vinyl, LP, Album, RCA Victor - LSP-4731, US"
PERFORMER "John Denver"
TITLE "Rocky Mountain High"
FILE "01. Side 1.flac" WAVE
  TRACK 01 AUDIO
    TITLE "A1 Rocky Mountain High"
    INDEX 01 00:00:00
  TRACK 02 AUDIO
    TITLE "A2 Mother Nature's Son"
    INDEX 01 04:50:32
  TRACK 03 AUDIO
    TITLE "A3 Paradise"
    INDEX 01 07:22:67
  TRACK 04 AUDIO
    TITLE "A4 For Baby (For Bobbie)"
    INDEX 01 09:40:29
  TRACK 05 AUDIO
    TITLE "A5 Darcy Farrow"
    INDEX 01 12:40:42
  TRACK 06 AUDIO
    TITLE "A6 Prisoners"
    INDEX 01 17:06:72
FILE "02. Side 2.flac" WAVE
  TRACK 07 AUDIO
    TITLE "B1 Goodbye Again"
    INDEX 01 00:00:00
  TRACK 08 AUDIO
    TITLE "B2 Summer"
    INDEX 01 03:44:55
  TRACK 09 AUDIO
    TITLE "B3 Fall"
    INDEX 01 06:36:29
  TRACK 10 AUDIO
    TITLE "B4 Winter"
    INDEX 01 08:12:34
  TRACK 11 AUDIO
    TITLE "B5 Late Winter, Early Spring (When Everybody Goes To Mexico)"
    INDEX 01 09:49:74
  TRACK 12 AUDIO
    TITLE "B6 Spring"
    INDEX 01 13:50:29


Не забывайте говорить Спасибо. Не уходите с раздачи!   
Торрент: Зарегистрирован [29 июн 2019, 08:20]
Статус:
Проверен
 
.torrent скачан: 0 раз
Хэш: 9ce3519519d17308649e883f468ac9758245b67f
Размер: 707.76 МБ (742 135 003 байт)
   Стать Автором раздачи
   
Цитата
  • Похожие торренты
    Ответы
    Просмотры
    Последнее сообщение

Вернуться в Фольклор, народная и этническая музыка (оцифровки)

Кто сейчас на конференции

Сейчас эту тему просматривают: нет зарегистрированных пользователей и гости: 1