(Folk Rock, Celtic) [LP] [24/96] Alan Stivell - Renaissance De La Harpe Celtique (1971) - 1972, FLAC (tracks+.cue)

 Статистика раздачи 
Размер: 697.92 МБ   |  Зарегистрирован: 21 ноя 2017, 22:02   |   .torrent скачан: 0 раз
Сидеров: 0  [ 0 байт/сек ]     Личеров: 0  [ 0 байт/сек ]  
  
Аватара пользователя
Главный редактор
Главный редактор
Я на сайте
 
Раздал: 90.01 ТБ
Скачал: 3.78 ТБ
Ратио: 24.248
Сообщения: 273585
Стаж: 9 лет 1 месяц 11 дней
Откуда: Санкт-Петербург

Alan Stivell - Renaissance De La Harpe Celtique (1971)
Жанр: Folk Rock, Celtic
Носитель: LP, Gatefold
Год выпуска: 1972
Лейбл: Fontana - 6325.302
Страна-производитель: France
Аудио кодек: FLAC
Тип рипа: tracks+.cue
Формат записи: 24/96
Формат раздачи: 24/96
Продолжительность: 00:37:44
Side 1
A1 - Ys 8:40
Written-By, Arranged By [Emprunts Aux Thèmes Gwerz Kér Ys Et Cuan Bhéil Innse] - Alan Stivell Cochevelou
A2 - Marv Pontkalleg (Inédit) 3:27
Arranged By - Denise Mégevand / Written-By - Folklore
A3 - Extraits Des Manuscrits Gallois
Adapted By - A. Dolmetsch
A3a - Ap Huw (Profiad Y Botum) - 2:58
A3b - Penllyn (Llywelyn Ap Ifan Ab Y Gof) - 2:54
A4 - Eliz Iza 2:54
Arranged By - A. Stivell / Written-By - Folklore
Side 2
B1 - Gaeltacht (Folklore)
B1a - Caitlin Triall 0:57
Arranged By - A. Stivell / Written-By [Mélodie Irlandaise] - Traditional
B1b - Port Ui Mhuirgheasa 1:41
Arranged By - A. Stivell / Written-By [Jig Irlandaise] - Traditional
B1c - Airde Cuan 1:37
Arranged By - J. Cochevelou / Written-By [Mélodie Irlandaise] - Traditional
B1d - Na Reubairean 0:39
Arranged By - D. Mégevand / Written-By [Mélodie Écossaise] - Traditional
B1e - Mélodie Manxoise 0:34
Arranged By - A. Stivell
B1f - Heman Dubh 2:13
Arranged By - A. Stivell / Written-By [Chant De Travail Des Iles Hébrides] - Traditional
B1g - Gaelic Waltz 2:43
Arranged By - A. Stivell / Written-By [Valse Traditionnelle Écossaise] - Traditional
B1h - Struan Robertson (Straspey) 0:52
Arranged By - A. Stivell / Written-By [Danse Écossaise - Strapspey] - Traditional
B1i - The Little Cascade 1:14
Arranged By - A. Stivell / Written-By [Danse Écossaise - Reel] - Traditional
B1j - Braigh Loch Lall 3:20
Arranged By - A. Stivell / Written-By [Mélodie Écossaise] - Traditional
B1k - Port An Deorai (Suide De Slips-Jigs Irlandaises) 2:55
Arranged By - A. Stivell / Written-By [Jig Irlandaise] - Traditional
Companies, etc.
Distributed By – Phonogram
Made By – Imprimerie JAT, Chatillon
Printed By – Imprimerie JAT, Chatillon
Recorded At – Studio Des Dames
Lacquer Cut At – C.I.D.I.S. Louviers
Pressed By – C.I.D.I.S. Louviers
Credits
Backing Vocals [Chœurs] – Anne Germain (tracks: A4), Claude Germain (tracks: A4), Danièle Bartotelli (tracks: A4), Françoise Wall (tracks: A4), Jacques Hendrix (tracks: A4), Jean-Claude Briodin (tracks: A4)
Bass Guitar – Gérard Levavsseur, Gérard Salkowsky
Bombarde – Alan Kloatr, Mig Ar Biz
Cello [Violoncelle] – Henri Delagarde, Jean Huchot, Manuel Recasens
Double Bass [Contrebasse] – Jean-Marc Dollez
Drums [Batterie Pop] – Guy Cascales
Drums [Scottish] – Yann-Fañch Ar Merdy
Electric Guitar, Acoustic Guitar – Dan Ar Bras
Harp [Harpe Celtique], Flute [Flûte Irlandaise], Bagpipes [Cornemuse Ecossaise], Bombarde [Bombarde Bretonne] – Alan Stivell Cochevelou
Liner Notes – Jord Cochevelou, Yann-Fanch Ar Merdy
Organ [Orgue] – Gilles Tinayjre
Percussion, Tabla – Michel Delaporte
Photography By [Inner] – Galbrun, Pierre Meurou
Photography By [Recto, Verso, Inner] – Korentin Kéo
Producer – Franck Giboni
Recorded By [Assistant] – Philippe Lerichomme
Recorded By [Prise De Son] – Paul Houdebine
Viola [Alto] – Gabriel Beauvais, Paul Hadjaje, Pierre Cheval, Stéphane Wiener
Notes
Enregistré au Studio des Dames - Paris / Recorded at Studio des Dames, Paris.
Several copies have a "Grand Prix International Du Disque" (1972) sticker on the cover.
This version differs from Alan Stivell - Renaissance De La Harpe Celtique, in that it has "distribution phonogram" and a different printing company.
Barcode and Other Identifiers
Matrix / Runout (Label side A): 6325 302 1
Matrix / Runout (Label side B): 6325 302 2
Matrix / Runout (Runout side A, variant 1): 6325302 1 380
Matrix / Runout (Runout side B, variant 1): 6325302 2 380
Matrix / Runout (Runout side A, variant 2, stamped): FON 6325302 1 DU 1 380 CIDIS
Matrix / Runout (Runout side B, variant 2, stamped): 6325302 2 380
Rights Society: SACEM SDRM SACD SGDL
Other (Price code): B (encircled)
Источник оцифровки: третьим лицом
Код класса состояния винила: Ex+
Устройство воспроизведения: Technics SL-1200MK2 Quartz
Головка звукоснимателя: SHURE M97xE
Предварительный усилитель: Marantz 2252
АЦП: E-MU 0404
Программа-оцифровщик: Не указано
Обработка: DeClick with iZotope RX4: Only Manual (Click per click)
Доп. информация:
----------------------------------------------------------------------------------------------
Analyzed folder: /Alan Stivell ‎- Renaissance De La Harpe Celtique (LP)
----------------------------------------------------------------------------------------------
DR Peak RMS Filename
----------------------------------------------------------------------------------------------
DR14 -0.12 dB -19.56 dB 01 Alan Stivell - LADO 1- Ys.wav
DR12 -0.32 dB -16.51 dB 02 Alan Stivell - Marv Pontkalleg (Inedit).wav
DR15 -2.70 dB -21.34 dB 03 Alan Stivell - Extraits Des Manuscrits Gallois (2 Parts).wav
DR12 -0.39 dB -16.01 dB 04 Alan Stivell - Eliz Iza.wav
DR13 -0.11 dB -17.37 dB 05 Alan Stivell - LADO 2- Gaeltacht (Folklore - 11 Parts).wav
----------------------------------------------------------------------------------------------
Number of files: 5
Official DR value: DR13
==============================================================================================
Не забывайте говорить Спасибо. Не уходите с раздачи!   
Торрент: Зарегистрирован [21 ноя 2017, 22:02]
Статус:
Проверен
 
.torrent скачан: 0 раз
Хэш: ec4d5f7e0382e3c5d5175c2ef09f4e256a9146ce
Размер: 697.92 МБ (731 817 175 байт)
   Стать Автором раздачи
   
Цитата

Вернуться в Фольклор, народная и этническая музыка (оцифровки)

Кто сейчас на конференции

Сейчас эту тему просматривают: нет зарегистрированных пользователей и гости: 1