(Jazz/Pop/Vocal) [LP] [24/192]The Barry Sisters - Коллекция (3LP) - 1961-1969, FLAC (image+.cue)

 Статистика раздачи 
Размер: 3.79 ГБ   |  Зарегистрирован: 19 мар 2013, 15:02   |   .torrent скачан: 0 раз
Сидеров: 0  [ 0 байт/сек ]     Личеров: 0  [ 0 байт/сек ]  
  
Аватара пользователя
Главный редактор
Главный редактор
Я на сайте
 
Раздал: 90.01 ТБ
Скачал: 3.78 ТБ
Ратио: 24.248
Сообщения: 274792
Стаж: 9 лет 1 месяц 19 дней
Откуда: Санкт-Петербург

The Barry Sisters - Collection
Жанр: Jazz/Pop/Vocal
Год выпуска: 1961-1969
Лейбл: Roulette Records, Artone, Saga Eros
Страна-производитель: US,GB, Holland
Аудио кодек: FLAC
Тип рипа: image+.cue
Формат записи: 24/192
Формат раздачи: 24/192

Barry Sisters, The – Shalom

Жанр: Jazz/Pop/Vocal
Год выпуска: 1961
Лейбл: Roulette Records – R 25127 Artone - PRL 060
Страна-производитель: Holland
Аудио кодек: FLAC
Тип рипа: image+.cue
Формат записи: 24/192 dual mono
Формат раздачи: 24/192 dual mono
Продолжительность: 00:39:40
Треклист:
A1 Israeli Medley
A1.1 Artza Alinu
A1.2 Tzena, Tzena, Tzena, Tzena
A2 Papirossen
A3 Ketzele Baroiges
A4 Ain Kik Auf Dir
A5 Mama
A6 Nicht Auf Zintug
B1 Exodus
B2 Chribim Chiribom
B3 Tsi Shpait
B4 Passover Medley
B5 Git Mir Op Mazel-Tov
B6 Die Greene Koseene
Источник оцифровки: оцифровано Crimson74
Код класса состояния винила: Good
Устройство воспроизведения: Technics SP-10 MK2
Головка звукоснимателя: Audio Technica ML180
Предварительный усилитель: Kora 3T SE MM
АЦП: Edirol R-44
Обработка: удаление наиболее заметных щелчков
foobar2000 1.1.8 / Dynamic Range Meter 1.1.1
log date: 2014-06-27 00:53:51
--------------------------------------------------------------------------------
Analyzed: The Barry Sisters / Shalom
--------------------------------------------------------------------------------
DR Peak RMS Duration Track
--------------------------------------------------------------------------------
DR8 -4.50 dB -14.14 dB 1:45 01-Israeli Medley - Artza Alinu
DR9 -3.17 dB -14.78 dB 1:58 02-Israeli Medley - Tzena, Tzena, Tzena, Tzena
DR11 -4.28 dB -17.31 dB 4:09 03-Papirossen
DR9 -4.82 dB -15.52 dB 2:28 04-Ketzele Baroiges
DR9 -5.49 dB -16.43 dB 2:51 05-Ain Kik Auf Dir
DR9 -4.47 dB -16.68 dB 4:15 06-Mama
DR9 -4.40 dB -15.26 dB 3:15 07-Nicht Auf Zintug
DR9 -5.42 dB -17.27 dB 2:55 08-Exodus
DR11 -5.26 dB -17.29 dB 2:37 09-Chribim Chiribom
DR9 -6.62 dB -18.24 dB 3:43 10-Tsi Shpait
DR10 -3.79 dB -14.92 dB 3:11 11-Passover Medley
DR10 -5.43 dB -18.24 dB 3:26 12-Git Mir Op Mazel-Tov
DR10 -4.09 dB -17.19 dB 3:07 13-Die Greene Koseene
--------------------------------------------------------------------------------
Number of tracks: 13
Official DR value: DR10
Samplerate: 192000 Hz
Channels: 2
Bits per sample: 24
Bitrate: 2618 kbps
Codec: FLAC
================================================================================
В файле Sample фрагменты треков A6 и B1.

Barry Sisters, The – Side By Side

#77Жанр: Jazz/Pop
Год выпуска: 1961
Лейбл: Roulette Records – SR 25136
Страна-производитель: US
Аудио кодек: FLAC
Тип рипа: image+.cue
Формат записи: 24/192
Формат раздачи: 24/192
Продолжительность: 00:35:40
Треклист:
A1 Around The World (Victor Young)
A2 Cry Me A River (Arthur Hamilton)
A3 Dont You Do Right(Joe McCoy)
A4 Come'Prima/For The First Time(Lacconi, Ram, Panzeri, DiPaola)
A5 Misty (Garner, Burke)
A6 Ciao, Ciao, Bambina (Verde, Modugno, Parish)
B1 Who's Sorry Now (Kalma, Ruby, Snyder)
B2 A Fool To Want You (Sinatra, Wolf, Herron)
B3 Bill Bailey, Won't You Please Come Home (Cannon, Frey)
B4 Autumn Leaves (Mercer, Kosma)
B5 Fascination (Manning, Marchetti)
B6 It's Alright With Me (Cole Porter)
Arranged By - Richard Wess, Stan Applebaum
Arranged By [Special Vocal] - Hal Kanner
Источник оцифровки: оцифровано Crimson74
Код класса состояния винила: Good
Устройство воспроизведения: Technics SP-10 MK2
Головка звукоснимателя: Audio Technica ML180
Предварительный усилитель: Kora 3T SE MM
АЦП: Edirol R-44
Обработка: удаление наиболее заметных щелчков
foobar2000 1.1.8 / Dynamic Range Meter 1.1.1
log date: 2013-03-19 18:34:02
--------------------------------------------------------------------------------
Analyzed: Barry Sisters / Side By Side
--------------------------------------------------------------------------------
DR Peak RMS Duration Track
--------------------------------------------------------------------------------
DR12 -3.65 dB -18.42 dB 2:16 01-Around The World
DR11 -5.00 dB -20.72 dB 2:44 02-Cry Me A River
DR12 -4.13 dB -19.42 dB 2:31 03-Why Dont You Do Right
DR10 -3.40 dB -20.33 dB 3:18 04-Come'Prima
DR11 -3.76 dB -18.74 dB 3:52 05-Misty
DR11 -5.31 dB -21.06 dB 3:56 06-Ciao, Ciao, Bambina
DR11 -2.80 dB -20.38 dB 2:28 07-Who's Sorry Now
DR12 -6.22 dB -22.10 dB 3:25 08-I'm A Fool To Want You
DR12 -3.97 dB -18.80 dB 3:20 09-Bill Bailey, Won't You Please Come Home
DR11 -6.30 dB -22.29 dB 3:05 10-Autumn Leaves
DR10 -7.07 dB -20.21 dB 2:24 11-Fascination
DR11 -3.74 dB -18.23 dB 2:20 12-It's Alright With Me
--------------------------------------------------------------------------------
Number of tracks: 12
Official DR value: DR11
Samplerate: 192000 Hz
Channels: 2
Bits per sample: 24
Bitrate: 5111 kbps
Codec: FLAC
================================================================================
В папке Samples находятся минутные фрагменты последних треков с каждой стороны.

Barry Sisters, The – Jewish Favourites

#77Жанр: Jazz, Pop, Vocal
Год выпуска: 1969
Лейбл: Saga Eros – EROS 8078
Страна-производитель: UK
Аудио кодек: FLAC
Тип рипа: image+.cue
Формат записи: 24/192
Формат раздачи: 24/192
Продолжительность: 00:40:14
Треклист:
A1 Hava Nagila
A2 Bublitchki
A3 Vyoch Tyoch Tyoch
A4 Yingele Nit Vain
A5 Zuges Mir Noch Amool
A6 Yuh, Mein Liebe Tochter
B1 Dem Nyem Scher
B2 Tumbala-lika
B3 Ich Chob Dich Zifeel Lieb
B4 Fargess Mich Nit
B5 Eishes-chiyell
B6 Vie Aheen Zol Ich Gayn
Источник оцифровки: оцифровано Crimson74
Код класса состояния винила: Good
Устройство воспроизведения: Technics SP-10 MK2
Головка звукоснимателя: Audio Technica ML180
Предварительный усилитель: Kora 3T SE MM
АЦП: Edirol R-44
Обработка: удалены наиболее заметные щелчки и артефакты
foobar2000 1.1.8 / Dynamic Range Meter 1.1.1
log date: 2014-02-21 08:14:19
--------------------------------------------------------------------------------
Analyzed: , The Barry Sisters / Jewish Favourites
--------------------------------------------------------------------------------
DR Peak RMS Duration Track
--------------------------------------------------------------------------------
DR11 -2.87 dB -16.49 dB 3:22 01-Hava Nagila
DR11 -3.55 dB -18.50 dB 3:53 02-Bublitchki
DR11 -4.48 dB -18.59 dB 3:14 03-Vyoch Tyoch Tyoch
DR10 -6.79 dB -21.33 dB 4:10 04-Yingele Nit Vain
DR11 -3.95 dB -17.70 dB 2:08 05-Zuges Mir Noch Amool
DR11 -6.39 dB -20.83 dB 2:41 06-Yuh, Mein Liebe Tochter
DR12 -3.93 dB -17.71 dB 3:04 07-Dem Nyem Scher
DR11 -5.35 dB -21.40 dB 2:48 08-Tumbala-lika
DR11 -7.10 dB -21.31 dB 3:32 09-Ich Chob Dich Zifeel Lieb
DR11 -7.74 dB -23.69 dB 4:36 10-Fargess Mich Nit
DR11 -4.42 dB -17.62 dB 3:13 11-Eishes-chiyell
DR11 -8.46 dB -23.37 dB 3:33 12-Vie Aheen Zol Ich Gayn
--------------------------------------------------------------------------------
Number of tracks: 12
Official DR value: DR11
Samplerate: 192000 Hz
Channels: 2
Bits per sample: 24
Bitrate: 5524 kbps
Codec: FLAC
================================================================================
В файле Samples минутные фрагменты последних треков.
21.02.2014 - добавлен Jewish Favourites
27.06.2014 - добавлен Shalom
Не забывайте говорить Спасибо. Не уходите с раздачи!   
Торрент: Зарегистрирован [19 мар 2013, 15:02]
Статус:
Проверен
 
.torrent скачан: 0 раз
Хэш: 720b476184637cb362286437cd473156e556e8a5
Размер: 3.79 ГБ (4 064 252 578 байт)
   Стать Автором раздачи
   
Цитата
  • Похожие торренты
    Ответы
    Просмотры
    Последнее сообщение

Вернуться в Фольклор, народная и этническая музыка (оцифровки)

Кто сейчас на конференции

Сейчас эту тему просматривают: нет зарегистрированных пользователей и гости: 1